[ Сегодня идет свободное скачивание без начисления Download ]


Статистика раздачи
Нет
 
   
 
Top  
 
 
Яйцеголовые / Coneheads (1993) Страна: США
Производство: Paramount Pictures
Год выпуска: 1993
Жанр: фантастика, комедия
Продолжительность: 01:26:47
Режиссер: Стив Бэррон
Авторы сценария: Том Дэвис, Дэн Эйкройд, Бонни Тернер
В ролях: Дэн Эйкройд, Джейн Куртин, Мишель Бёрк, Фил Хартмен, Майкл МакКин, Джейсон Александер, Синбад, Крис Фарли, Адам Сэндлер
Описание: Вполне может быть, что человек не одинок во Вселенной, и встреча с собратом по разуму, отличающимся от землян только формой черепа, не исключена. Во время посадки на Землю корабль яйцеголовых инопланетян сбивает истребитель ВВС США. Яйцеголовые вынуждены жить среди людей. Постепенно семейство чужаков осваивается среди землян и даже принимает американский образ жизни...

Перевод: 2х Профессиональный (многоголосый) + 2х Профессиональный (двухголосый) + 2х Авторский (одноголосый)
Субтитры: английские (SDH)-Качество: WEB-DL 720р
Формат: МКV
Видео кодек: AVC
Аудио кодек: АС3
Видео: 1280x720 (16:9), 23.976 fps, MPEG-4 AVC ~3 804 kbps avg
Аудио №1: 48.0 kHz, AC3 Dolby Digital, 2/0 (L,R) ch, ~192 kbps | MVO | Paramount Channel
Аудио №2: 48.0 kHz, AC3 Dolby Digital, 2/0 (L,R) ch, ~192 kbps | MVO | СТС
Аудио №3: 48.0 kHz, AC3 Dolby Digital, 2/0 (L,R) ch, ~192 kbps | DVO | SDI Media
Аудио №4: 48.0 kHz, AC3 Dolby Digital, 2/0 (L,R) ch, ~256 kbps | DVO | Премьер Видео Фильм
Аудио №5: 48.0 kHz, AC3 Dolby Digital, 2/0 (L,R) ch, ~256 kbps | АVO | Василий Горчаков
Аудио №6: 48.0 kHz, AC3 Dolby Digital, 2/0 (L,R) ch, ~256 kbps | АVO | Леонид Володарский
Аудио №7: 48.0 kHz, AC3 Dolby Digital, 3/2 (L,C,R,l,r) + LFE ch, ~384 kbps | ENG
Формат субтитров UTF-8 Plain Text
Дата премьеры (мир): 23 июля 1993
Релиз от: V.SERIJ2013

Media Info

General
Unique ID : 250396398256959079509134174189569242276 (0xBC60979649FF48569BD288580F80F4A4)
Complete name : Coneheads (1993) (WEB-DL 720p).mkv
Format : Matroska
Format version : Version 4 / Version 2
File size : 3.42 GiB
Duration : 1h 26mn
Overall bit rate : 5 644 Kbps
Encoded date : UTC 2016-03-01 10:07:41
Writing application : mkvmerge v8.8.0 ('Wind at my back') 32bit
Writing library : libebml v1.3.3 + libmatroska v1.4.4
DURATION : 01:26:47.264000000
NUMBER_OF_FRAMES : 162727
NUMBER_OF_BYTES : 124974336
_STATISTICS_WRITING_APP : mkvmerge v8.8.0 ('Wind at my back') 32bit
_STATISTICS_WRITING_DATE_UTC : 2016-03-01 10:07:41
_STATISTICS_TAGS : BPS DURATION NUMBER_OF_FRAMES NUMBER_OF_BYTES
Video
ID : 1
Format : AVC
Format/Info : Advanced Video Codec
Format profile : High@L3.1
Format settings, CABAC : No
Format settings, ReFrames : 2 frames
Codec ID : V_MPEG4/ISO/AVC
Duration : 1h 26mn
Bit rate : 3 804 Kbps
Width : 1 280 pixels
Height : 720 pixels
Display aspect ratio : 16:9
Frame rate mode : Constant
Frame rate : 23.976 fps
Color space : YUV
Chroma subsampling : 4:2:0
Bit depth : 8 bits
Scan type : Progressive
Bits/(Pixel*Frame) : 0.172
Stream size : 2.31 GiB (67%)
Language : English
Default : Yes
Forced : No
Color primaries : BT.709
Transfer characteristics : BT.709
Matrix coefficients : BT.709
Color range : Limited
Audio #1
ID : 2
Format : AC-3
Format/Info : Audio Coding 3
Mode extension : CM (complete main)
Format settings, Endianness : Big
Codec ID : A_AC3
Duration : 1h 26mn
Bit rate mode : Constant
Bit rate : 192 Kbps
Channel(s) : 2 channels
Channel positions : Front: L R
Sampling rate : 48.0 KHz
Bit depth : 16 bits
Compression mode : Lossy
Stream size : 119 MiB (3%)
Title : MVO (Paramount Channel)
Language : Russian
Default : Yes
Forced : No
Audio #2
ID : 3
Format : AC-3
Format/Info : Audio Coding 3
Mode extension : CM (complete main)
Format settings, Endianness : Big
Codec ID : A_AC3
Duration : 1h 26mn
Bit rate mode : Constant
Bit rate : 192 Kbps
Channel(s) : 2 channels
Channel positions : Front: L R
Sampling rate : 48.0 KHz
Bit depth : 16 bits
Compression mode : Lossy
Stream size : 119 MiB (3%)
Title : MVO (СТС)
Language : Russian
Default : No
Forced : No
Audio #3
ID : 4
Format : AC-3
Format/Info : Audio Coding 3
Mode extension : CM (complete main)
Format settings, Endianness : Big
Codec ID : A_AC3
Duration : 1h 26mn
Bit rate mode : Constant
Bit rate : 192 Kbps
Channel(s) : 2 channels
Channel positions : Front: L R
Sampling rate : 48.0 KHz
Bit depth : 16 bits
Compression mode : Lossy
Stream size : 119 MiB (3%)
Title : DVO (SDI Media)
Language : Russian
Default : No
Forced : No
Audio #4
ID : 5
Format : AC-3
Format/Info : Audio Coding 3
Mode extension : CM (complete main)
Format settings, Endianness : Big
Codec ID : A_AC3
Duration : 1h 26mn
Bit rate mode : Constant
Bit rate : 256 Kbps
Channel(s) : 2 channels
Channel positions : Front: L R
Sampling rate : 48.0 KHz
Bit depth : 16 bits
Compression mode : Lossy
Stream size : 159 MiB (5%)
Title : DVO (Премьер Видео Фильм)
Language : Russian
Default : No
Forced : No
Audio #5
ID : 6
Format : AC-3
Format/Info : Audio Coding 3
Mode extension : CM (complete main)
Format settings, Endianness : Big
Codec ID : A_AC3
Duration : 1h 26mn
Bit rate mode : Constant
Bit rate : 256 Kbps
Channel(s) : 2 channels
Channel positions : Front: L R
Sampling rate : 48.0 KHz
Bit depth : 16 bits
Compression mode : Lossy
Stream size : 159 MiB (5%)
Title : AVO (Василий Горчаков)
Language : Russian
Default : No
Forced : No
Audio #6
ID : 7
Format : AC-3
Format/Info : Audio Coding 3
Mode extension : CM (complete main)
Format settings, Endianness : Big
Codec ID : A_AC3
Duration : 1h 26mn
Bit rate mode : Constant
Bit rate : 256 Kbps
Channel(s) : 2 channels
Channel positions : Front: L R
Sampling rate : 48.0 KHz
Bit depth : 16 bits
Compression mode : Lossy
Stream size : 159 MiB (5%)
Title : AVO (Леонид Володарский)
Language : Russian
Default : No
Forced : No
Audio #7
ID : 8
Format : AC-3
Format/Info : Audio Coding 3
Mode extension : CM (complete main)
Format settings, Endianness : Big
Codec ID : A_AC3
Duration : 1h 26mn
Bit rate mode : Constant
Bit rate : 384 Kbps
Channel(s) : 6 channels
Channel positions : Front: L C R, Side: L R, LFE
Sampling rate : 48.0 KHz
Bit depth : 16 bits
Compression mode : Lossy
Stream size : 238 MiB (7%)
Title : Original
Language : English
Default : No
Forced : No
Text
ID : 9
Format : UTF-8
Codec ID : S_TEXT/UTF8
Codec ID/Info : UTF-8 Plain Text
Title : SDH
Language : English
Default : No
Forced : No
Menu
00:00:00.000 : en:Beldar Checks In
00:06:35.000 : en:First Job,"The Repairman"
00:10:39.000 : en:Beldar Gets A New ID
00:13:01.000 : en:Beldar Chews Gum
00:20:57.000 : en:Second Job "Cab Driver"
00:21:38.000 : en:Prymaat's Water Breaks
00:27:08.000 : en:Connie Grows Up
00:40:17.000 : en:Connie's First Kiss
00:47:05.000 : en:Beldar's Homecoming Fireworks
00:52:18.000 : en:prymaat's Candlelight Seduction
01:02:53.000 : en:Spaceaship Picks Up The Family
01:11:50.000 : en:Beldar Fights The Garthok
01:20:14.000 : en:Ronnie Arrives For Prom Night

Скриншоты

[Цитировать]



Показать сообщения:    

Текущее время: 11-Дек 13:00

Часовой пояс: UTC + 3


Вы не можете начинать темы
Вы не можете отвечать на сообщения
Вы не можете редактировать свои сообщения
Вы не можете удалять свои сообщения
Вы не можете голосовать в опросах
Вы не можете прикреплять файлы к сообщениям
Вы не можете скачивать файлы

!ВНИМАНИЕ!
Сайт не предоставляет электронные версии произведений, а занимается лишь коллекционированием и каталогизацией ссылок, присылаемых и публикуемых на форуме нашими читателями. Если вы являетесь правообладателем какого-либо представленного материала и не желаете, чтобы ссылка на него находилась в нашем каталоге, свяжитесь с нами, и мы незамедлительно удалим ее. Файлы для обмена на трекере предоставлены пользователями сайта, и администрация не несет ответственности за их содержание. Просьба не заливать файлы, защищенные авторскими правами, а также файлы нелегального содержания!