[ Сегодня идет свободное скачивание без начисления Download ]


Статистика раздачи
Нет
 
   
 
Top  
 
 
-Бомбила (1-16 серии из 16) (2011) DVB- Оригинальное название: Бомбила
Год выпуска: 2011
Страна: Россия / «Мостелефильм»
Жанр: боевик, комедия, криминал-
Премьера: 16 мая 2011 (НТВ)
Режиссер: Александр Калугин
Актеры: Дмитрий Миллер, Наталия Антонова, Максим Щёголев, Анна Банщикова, Пелагея Максимова, Егор Баринов, Александр Яцко, Сергей Векслер, Юрий Нифонтов, Сергей Никоненко, Валерий Баринов, Игорь Верник, Константин Желдин, Вероника Лысакова, Ксения Березина, Дмитрий Слинкин, Константин Тополага, Юрий Шерстнев, Олег Комаров, Роман Кириллов, Александр Калугин, Мария Ильюхина, Юрий Кузьменков, Татьяна Сидоренко...
Описание фильма:
Бывший спецназовец Артем Горохов обвиняется в убийстве крупного бизнесмена. Никто не верит, что Артем – обыкновенный «бомбила», а не супер-киллер. Артему грозит пожизненное заключение.
Но неунывающий Артем способен найти нестандартный выход из любой ситуации. Главное оружие Артема – отменное чувство юмора, которое помогает ему выстоять в сложных ситуациях, сбежать из СИЗО и разоблачить планы воротил наркобизнеса...-Продолжительность: серия ~ 00:45
Качество видео: DVB
Формат : MPEG-PS
Видеокодек: MPEG2
Битрейт видео: ~4156 kbps avg
Размер кадра: 720x576**768х576 (4:3), 25.000 fps
Аудиокодек: MPEG Audio Layer 2
Аудио: 48 kHz, 2 ch, ~192 kbps avg
Субтитры: Отсутствуют

MediaInfo:

Формат : MPEG-PS
Размер файла : 1,41 Гбайт
Продолжительность : 45 м.
Общий поток : 4437 Кбит/сек
Видео
Идентификатор : 224 (0xE0)
Формат : MPEG Video
Версия формата : Version 2
Профиль формата : Main@Main
Параметр BVOP формата : Да
Параметр матрицы формата : По умолчанию
Параметры GOP формата : M=1, N=31
Продолжительность : 45 м.
Вид битрейта : Переменный
Битрейт : 4156 Кбит/сек
Номинальный битрейт : 15,0 Мбит/сек
Ширина : 720 пикс.
Высота : 576 пикс.
Соотношение сторон : 4:3
Частота кадров : 25,000 кадр/сек
Стандарт вещания : PAL
Цветовое пространство : YUV
Подвыборка цветности : 4:2:0
Битовая глубина : 8 бит
Тип развёртки : Чересстрочная
Порядок развёртки : Верхнее поле первое
Метод сжатия : С потерями
Бит/(Пиксели*Кадры) : 0.401
Размер потока : 1,32 Гбайт (94%)
Аудио
Идентификатор : 192 (0xC0)
Формат : MPEG Audio
Версия формата : Version 1
Профиль формата : Layer 2
Продолжительность : 45 м.
Вид битрейта : Постоянный
Битрейт : 192 Кбит/сек
Канал(ы) : 2 канала(ов)
Частота : 48,0 КГц
Метод сжатия : С потерями
Размер потока : 62,6 Мбайт (4%)
Скриншоты:

Бомбила (1-16 серия из 16) (2011)Время раздачи: 24/7

[Цитировать]



Показать сообщения:    

Текущее время: 08-Дек 01:21

Часовой пояс: UTC + 3


Вы не можете начинать темы
Вы не можете отвечать на сообщения
Вы не можете редактировать свои сообщения
Вы не можете удалять свои сообщения
Вы не можете голосовать в опросах
Вы не можете прикреплять файлы к сообщениям
Вы не можете скачивать файлы

!ВНИМАНИЕ!
Сайт не предоставляет электронные версии произведений, а занимается лишь коллекционированием и каталогизацией ссылок, присылаемых и публикуемых на форуме нашими читателями. Если вы являетесь правообладателем какого-либо представленного материала и не желаете, чтобы ссылка на него находилась в нашем каталоге, свяжитесь с нами, и мы незамедлительно удалим ее. Файлы для обмена на трекере предоставлены пользователями сайта, и администрация не несет ответственности за их содержание. Просьба не заливать файлы, защищенные авторскими правами, а также файлы нелегального содержания!