[ Сегодня идет свободное скачивание без начисления Download ]


Статистика раздачи
Нет
 
   
 
Top  
 
 
Универсальный солдат / Universal Soldier Название: Универсальный солдат
Оригинальное название: Universal Soldier
Год выпуска: 1992
Жанр: Фантастика, боевик, драма
Выпущено: США, Carolco Pictures Inc., Centropolis Film Productions, IndieProd Company Productions, Studio Canal
Режиссер: Роланд Эммерих
В ролях: Жан-Клод Ван Дамм, Дольф Лундгрен, Элли Уокер, Эд О’Росс, Джерри Орбак, Леон Риппи, Тико Уэллс, Ральф Мёллер, Роберт Требор, Джин Дэвис, Дрю Снайдер, Томми Листер, Саймон Ри, Эрик Норрис, Майкл Уинтер, Джозеф Мэлоун, Рэнс Ховард, Лилиан Шовин, Джоэнн Барон, Люпе Онтиверос, Джек Мур, Джон Стори, Брэдфорд Бэнкрофт, Томас Розалес мл., Трини Трэн, Тай Тхай, Рэйчел Вагнер, Брэндон Лэмдин, Нед Беллами, Пол Рачовски, Дэниэл Деморест, Тэннер Гилл, Эдди Браун, Уолтер Роблз, Джофри С. Браун, Донна Харди, Леон Делани, Джордж Фишер, Дэвид Эфрон, Мирон Л. Лапка
О фильме:
Вьетнам. 1969 год. Первая стычка двух американских солдат — Люка и Скотта: Люк не может стрелять в безоружных людей, Скотт же готов убивать и убивать с нечеловечески-яростной жестокостью, о которой свидетельствует ожерелье из ушей, отрезанных им у вьетнамцев. Спустя годы Люк и Скотт вновь оказываются в одном отряде — спецподразделении универсальных солдат, которых бросают на выполнение самых опасных заданий (например, на ликвидацию террористов). Универсального солдата можно попытаться убить, но он будет подниматься вновь и вновь, и, если понадобится, учёные, работающие над сверхсекретным военным проектом, в специальной лаборатории займутся оживлением серьёзно пострадавшего «универсала». Однако, даже зная об этом, Скотт с упорством маньяка будет преследовать Люка, чтобы сойтись с ним в решающем поединке не на жизнь, а на смерть…

Качество: BDRip 720p
Размер: 5.64 ГБ
Продолжительность: 01:43:53
Видео: MPEG-4 AVC, 4766 Kбит/с, 1280x546
Аудио 1: русский, 48 kHz, AC3, 2 ch, 192 kbps avg, [Дублированный (со вставками многоголосого)]
Аудио 2: русский, 48 kHz, AC3, 6 ch, 448 kbps avg, [Профессиональный многоголосый, AuraFilm]
Аудио 3: русский, 48 kHz, AC3, 6 ch, 384 kbps avg, [Авторский, Андрей Гаврилов]
Аудио 4: русский, 48 kHz, AC3, 6 ch, 448 kbps avg, [Авторский, Василий Горчаков]
Внешние файлы
Аудио: русский, 48 kHz, AC3, 2 ch, 192 kbps avg, [Профессиональный многоголосый, CTC]
Аудио: русский, 48 kHz, AC3, 6 ch, 384 kbps avg, [Профессиональный многоголосый, Твистер]
Аудио: русский, 48 kHz, AC3, 2 ch, 192 kbps avg, [Любительский одноголосый, неизвестный]
Аудио: русский, 48 kHz, AC3, 2 ch, 192 kbps avg, [Любительский одноголосый, Петербуржец]
Аудио: английский, 48 kHz, AC3, 6 ch, 448 kbps avg, [Оригинал]
Субтитры: русские
Субтитры: английские

Информация по видеофайлу

Общее
Уникальный идентификатор : 234967121830314214054453986226849737608 (0xB0C50586C9AD315ABEB48B6CBB246B88)
Полное имя : D:VideoUniversalnyj.soldat.1992.BDRip.720pUniversalnyj.soldat.1992.BDRip.720p.mkv
Формат : Matroska
Версия формата : Version 4 / Version 2
Размер файла : 4,62 Гбайт
Продолжительность : 1 ч. 43 м.
Общий поток : 6364 Кбит/сек
Дата кодирования : UTC 2014-09-10 11:43:18
Программа кодирования : mkvmerge v6.9.1 ('Blue Panther') 64bit built on Apr 18 2014 18:23:38
Библиотека кодирования : libebml v1.3.0 + libmatroska v1.4.1
Видео
Идентификатор : 1
Формат : AVC
Формат/Информация : Advanced Video Codec
Профиль формата : [email protected]
Параметр CABAC формата : Да
Параметр ReFrames формата : 9 кадров
Идентификатор кодека : V_MPEG4/ISO/AVC
Продолжительность : 1 ч. 43 м.
Битрейт : 4766 Кбит/сек
Ширина : 1280 пикселей
Высота : 546 пикселей
Соотношение сторон : 2,35:1
Режим частоты кадров : Постоянный
Частота кадров : 23,976 кадра/сек
Цветовое пространство : YUV
Субдискретизация насыщенности : 4:2:0
Битовая глубина : 8 бит
Тип развёртки : Прогрессивная
Бит/(Пиксели*Кадры) : 0.284
Размер потока : 3,46 Гбайт (75%)
Заголовок : BDRip -- STarankov
Библиотека кодирования : x264 core 142 r2431 ac76440
Настройки программы : cabac=1 / ref=9 / deblock=1:-1:-1 / analyse=0x3:0x113 / me=umh / subme=10 / psy=1 / psy_rd=1.00:0.15 / mixed_ref=1 / me_range=32 / chroma_me=1 / trellis=2 / 8x8dct=1 / cqm=0 / deadzone=21,11 / fast_pskip=0 / chroma_qp_offset=-3 / threads=6 / lookahead_threads=1 / sliced_threads=0 / nr=0 / decimate=1 / interlaced=0 / bluray_compat=0 / constrained_intra=0 / bframes=8 / b_pyramid=2 / b_adapt=2 / b_bias=0 / direct=1 / weightb=1 / open_gop=0 / weightp=2 / keyint=230 / keyint_min=23 / scenecut=40 / intra_refresh=0 / rc_lookahead=40 / rc=crf / mbtree=0 / crf=18.8 / qcomp=0.60 / qpmin=0 / qpmax=69 / qpstep=4 / vbv_maxrate=40000 / vbv_bufsize=50000 / crf_max=0.0 / nal_hrd=none / filler=0 / ip_ratio=1.40 / pb_ratio=1.30 / aq=1:1.00
Язык : English
Default : Да
Forced : Нет
Аудио #1
Идентификатор : 2
Формат : AC-3
Формат/Информация : Audio Coding 3
Расширение режима : CM (complete main)
Параметр Endianness формата : Big
Идентификатор кодека : A_AC3
Продолжительность : 1 ч. 43 м.
Вид битрейта : Постоянный
Битрейт : 192 Кбит/сек
Каналы : 2 канала
Расположение каналов : Front: L R
Частота : 48,0 КГц
Битовая глубина : 16 бит
Метод сжатия : С потерями
Размер потока : 143 Мбайт (3%)
Заголовок : DUB (со вставками MVO)
Язык : Russian
Default : Да
Forced : Нет
Аудио #2
Идентификатор : 3
Формат : AC-3
Формат/Информация : Audio Coding 3
Расширение режима : CM (complete main)
Параметр Endianness формата : Big
Идентификатор кодека : A_AC3
Продолжительность : 1 ч. 43 м.
Вид битрейта : Постоянный
Битрейт : 448 Кбит/сек
Каналы : 6 каналов
Расположение каналов : Front: L C R, Side: L R, LFE
Частота : 48,0 КГц
Битовая глубина : 16 бит
Метод сжатия : С потерями
Размер потока : 333 Мбайт (7%)
Заголовок : MVO ((AuraFilm)
Язык : Russian
Default : Нет
Forced : Нет
Аудио #3
Идентификатор : 4
Формат : AC-3
Формат/Информация : Audio Coding 3
Расширение режима : CM (complete main)
Параметр Endianness формата : Big
Идентификатор кодека : A_AC3
Продолжительность : 1 ч. 43 м.
Вид битрейта : Постоянный
Битрейт : 384 Кбит/сек
Каналы : 6 каналов
Расположение каналов : Front: L C R, Side: L R, LFE
Частота : 48,0 КГц
Битовая глубина : 16 бит
Метод сжатия : С потерями
Размер потока : 285 Мбайт (6%)
Заголовок : AVO (Андрей Гаврилов)
Язык : Russian
Default : Нет
Forced : Нет
Аудио #4
Идентификатор : 5
Формат : AC-3
Формат/Информация : Audio Coding 3
Расширение режима : CM (complete main)
Параметр Endianness формата : Big
Идентификатор кодека : A_AC3
Продолжительность : 1 ч. 43 м.
Вид битрейта : Постоянный
Битрейт : 448 Кбит/сек
Каналы : 6 каналов
Расположение каналов : Front: L C R, Side: L R, LFE
Частота : 48,0 КГц
Битовая глубина : 16 бит
Метод сжатия : С потерями
Размер потока : 333 Мбайт (7%)
Заголовок : AVO (Василий Горчаков)
Язык : Russian
Default : Нет
Forced : Нет
Общее
Полное имя : D:VideoUniversalnyj.soldat.1992.BDRip.720pUniversalnyj.soldat.1992.eng.srt
Размер файла : 135 Кбайт
Общее
Полное имя : D:VideoUniversalnyj.soldat.1992.BDRip.720pUniversalnyj.soldat.1992.MVO.rus.ac3
Формат : AC-3
Формат/Информация : Audio Coding 3
Размер файла : 142 Мбайт
Продолжительность : 1 ч. 43 м.
Режим общего битрейта : Постоянный
Общий поток : 192 Кбит/сек
Аудио
Формат : AC-3
Формат/Информация : Audio Coding 3
Расширение режима : CM (complete main)
Параметр Endianness формата : Big
Продолжительность : 1 ч. 43 м.
Вид битрейта : Постоянный
Битрейт : 192 Кбит/сек
Каналы : 2 канала
Расположение каналов : Front: L R
Частота : 48,0 КГц
Битовая глубина : 16 бит
Метод сжатия : С потерями
Размер потока : 142 Мбайт (100%)
Общее
Полное имя : D:VideoUniversalnyj.soldat.1992.BDRip.720pUniversalnyj.soldat.1992.MVO.rus.Твистер.ac3
Формат : AC-3
Формат/Информация : Audio Coding 3
Размер файла : 285 Мбайт
Продолжительность : 1 ч. 43 м.
Режим общего битрейта : Постоянный
Общий поток : 384 Кбит/сек
Аудио
Формат : AC-3
Формат/Информация : Audio Coding 3
Расширение режима : CM (complete main)
Параметр Endianness формата : Big
Продолжительность : 1 ч. 43 м.
Вид битрейта : Постоянный
Битрейт : 384 Кбит/сек
Каналы : 6 каналов
Расположение каналов : Front: L C R, Side: L R, LFE
Частота : 48,0 КГц
Битовая глубина : 16 бит
Метод сжатия : С потерями
Размер потока : 285 Мбайт (100%)
Общее
Полное имя : D:VideoUniversalnyj.soldat.1992.BDRip.720pUniversalnyj.soldat.1992.Original.eng.ac3
Формат : AC-3
Формат/Информация : Audio Coding 3
Размер файла : 332 Мбайт
Продолжительность : 1 ч. 43 м.
Режим общего битрейта : Постоянный
Общий поток : 448 Кбит/сек
Аудио
Формат : AC-3
Формат/Информация : Audio Coding 3
Расширение режима : CM (complete main)
Параметр Endianness формата : Big
Продолжительность : 1 ч. 43 м.
Вид битрейта : Постоянный
Битрейт : 448 Кбит/сек
Каналы : 6 каналов
Расположение каналов : Front: L C R, Side: L R, LFE
Частота : 48,0 КГц
Битовая глубина : 16 бит
Метод сжатия : С потерями
Размер потока : 332 Мбайт (100%)
Общее
Полное имя : D:VideoUniversalnyj.soldat.1992.BDRip.720pUniversalnyj.soldat.1992.rus.srt
Размер файла : 129 Кбайт
Общее
Полное имя : D:VideoUniversalnyj.soldat.1992.BDRip.720pUniversalnyj.soldat.1992.VO.rus.неизвестный, любительский одноголосый.ac3
Формат : AC-3
Формат/Информация : Audio Coding 3
Размер файла : 142 Мбайт
Продолжительность : 1 ч. 43 м.
Режим общего битрейта : Постоянный
Общий поток : 192 Кбит/сек
Аудио
Формат : AC-3
Формат/Информация : Audio Coding 3
Расширение режима : CM (complete main)
Параметр Endianness формата : Big
Продолжительность : 1 ч. 43 м.
Вид битрейта : Постоянный
Битрейт : 192 Кбит/сек
Каналы : 2 канала
Расположение каналов : Front: L R
Частота : 48,0 КГц
Битовая глубина : 16 бит
Метод сжатия : С потерями
Размер потока : 142 Мбайт (100%)
Общее
Полное имя : D:VideoUniversalnyj.soldat.1992.BDRip.720pUniversalnyj.soldat.1992.VO.rus.Петербуржец, любительский одноголосый.ac3
Формат : AC-3
Формат/Информация : Audio Coding 3
Размер файла : 142 Мбайт
Продолжительность : 1 ч. 43 м.
Режим общего битрейта : Постоянный
Общий поток : 192 Кбит/сек
Аудио
Формат : AC-3
Формат/Информация : Audio Coding 3
Расширение режима : CM (complete main)
Параметр Endianness формата : Big
Продолжительность : 1 ч. 43 м.
Вид битрейта : Постоянный
Битрейт : 192 Кбит/сек
Каналы : 2 канала
Расположение каналов : Front: L R
Частота : 48,0 КГц
Битовая глубина : 16 бит
Метод сжатия : С потерями
Размер потока : 142 Мбайт (100%)
---[Information] [10.09.2014 17:40:43] x264 [info]: frame I:1356 Avg QP:17.56 size: 91457
---[Information] [10.09.2014 17:40:43] x264 [info]: frame P:31894 Avg QP:18.44 size: 46798
---[Information] [10.09.2014 17:40:43] x264 [info]: frame B:115988 Avg QP:20.64 size: 18920
---[Information] [10.09.2014 17:40:43] x264 [info]: consecutive B-frames: 2.0% 1.8% 5.2% 26.3% 16.2% 40.5% 3.7% 2.8% 1.5%
---[Information] [10.09.2014 17:40:43] x264 [info]: mb I I16..4: 9.2% 78.2% 12.6%
---[Information] [10.09.2014 17:40:43] x264 [info]: mb P I16..4: 4.0% 28.8% 2.5% P16..4: 30.1% 23.3% 10.5% 0.0% 0.0% skip: 0.8%
---[Information] [10.09.2014 17:40:43] x264 [info]: mb B I16..4: 1.4% 3.4% 0.2% B16..8: 42.2% 13.7% 3.4% direct:10.2% skip:25.5% L0:44.0% L1:43.7% BI:12.3%
---[Information] [10.09.2014 17:40:43] x264 [info]: 8x8 transform intra:76.7% inter:59.1%
---[Information] [10.09.2014 17:40:43] x264 [info]: coded y,uvDC,uvAC intra: 82.4% 88.4% 66.1% inter: 39.3% 30.8% 3.5%
---[Information] [10.09.2014 17:40:43] x264 [info]: i16 v,h,dc,p: 82% 3% 6% 10%
---[Information] [10.09.2014 17:40:43] x264 [info]: i8 v,h,dc,ddl,ddr,vr,hd,vl,hu: 12% 9% 12% 8% 12% 11% 11% 11% 13%
---[Information] [10.09.2014 17:40:43] x264 [info]: i4 v,h,dc,ddl,ddr,vr,hd,vl,hu: 30% 9% 3% 7% 11% 11% 10% 9% 10%
---[Information] [10.09.2014 17:40:43] x264 [info]: i8c dc,h,v,p: 43% 24% 18% 15%
---[Information] [10.09.2014 17:40:43] x264 [info]: Weighted P-Frames: Y:7.2% UV:4.0%
---[Information] [10.09.2014 17:40:43] x264 [info]: ref P L0: 42.8% 12.5% 19.6% 7.0% 6.0% 4.0% 3.7% 2.1% 2.1% 0.3% 0.0%
---[Information] [10.09.2014 17:40:43] x264 [info]: ref B L0: 76.1% 11.1% 5.0% 2.9% 2.0% 1.6% 0.9% 0.4%
---[Information] [10.09.2014 17:40:43] x264 [info]: ref B L1: 94.8% 5.2%
---[Information] [10.09.2014 17:40:43] x264 [info]: kb/s:4898.23
---[Information] [10.09.2014 17:40:43] encoded 149238 frames, 6.50 fps, 4898.23 kb/s
---[Information] [10.09.2014 17:40:43] avs [info]: AviSynth 2.60, build:May 25 2011 [19:58:41]
---[Information] [10.09.2014 17:40:43] avs [info]: Video colorspace: YV12
---[Information] [10.09.2014 17:40:43] avs [info]: Video resolution: 1280x546
---[Information] [10.09.2014 17:40:43] avs [info]: Video framerate: 24000/1001
---[Information] [10.09.2014 17:40:43] avs [info]: Video framecount: 149238
---[Information] [10.09.2014 17:40:43] avs4x264 [info]: "x264_64" - --level 4.1 --tune film --crf 18.8 --keyint 230 --bframes 8 --b-adapt 2 --ref 9 --vbv-bufsize 50000 --vbv-maxrate 40000 --no-mbtree --merange 32 --me umh --subme 10 --trellis 2 --no-fast-pskip --sar 1:1 --output D:RipUniversalnyj.soldat.1992.BDRipUniversalnyj.soldat.1992.BDRip.720p.mkv --frames 149238 --fps 24000/1001 --input-res 1280x546 --input-csp i420
--[Information] [10.09.2014 17:40:44] Final statistics
---[Information] [10.09.2014 17:40:44] Constant Quality Mode: Quality 18 computed...
---[Information] [10.09.2014 17:40:44] Video Bitrate Obtained (approximate): 4899 kbit/s
--[Information] [10.09.2014 17:40:44] MediaInfo
---[Information] [10.09.2014 17:40:45] File: D:RipUniversalnyj.soldat.1992.BDRipUniversalnyj.soldat.1992.BDRip.720p.mkv

Скриншоты

[Цитировать]

Топик был перенесен из форума Классика зарубежного кино (HD Video) в форум Зарубежное кино (HD Video)
Scorpio



Показать сообщения:    

Текущее время: 06-Дек 03:52

Часовой пояс: UTC + 3


Вы не можете начинать темы
Вы не можете отвечать на сообщения
Вы не можете редактировать свои сообщения
Вы не можете удалять свои сообщения
Вы не можете голосовать в опросах
Вы не можете прикреплять файлы к сообщениям
Вы не можете скачивать файлы

!ВНИМАНИЕ!
Сайт не предоставляет электронные версии произведений, а занимается лишь коллекционированием и каталогизацией ссылок, присылаемых и публикуемых на форуме нашими читателями. Если вы являетесь правообладателем какого-либо представленного материала и не желаете, чтобы ссылка на него находилась в нашем каталоге, свяжитесь с нами, и мы незамедлительно удалим ее. Файлы для обмена на трекере предоставлены пользователями сайта, и администрация не несет ответственности за их содержание. Просьба не заливать файлы, защищенные авторскими правами, а также файлы нелегального содержания!