[ Сегодня идет свободное скачивание без начисления Download ]


Статистика раздачи
Нет
 
   
 
Top  
 
 
-Сваты 4 (2010) [1080i] HDTV [1-16 серий из 16] - Русское название: Сваты 4
Год выпуска: 2010
Жанр: Комедия, Семейный
Телеканал Украина: Квартал-95, Телеканал ИнтерHD
Формат: MKV

Дата российской премьеры: 15 ноября 2010
Дата выхода DVD: 13 января 2011,"Новый диск"
Режиссер: Андрей Яковлев
Актеры: Федор Добронравов, Татьяна Кравченко, Анатолий Васильев, Людмила Артемьева, София Стеценко, Даниил Белых, Инна Королёва, Руслана Писанка, Олеся Железняк, Александр Феклистов
Описание фильма:
На этот раз бабушки и дедушки отправятся в Крым. Но они туда поедут не столько отдыхать, сколько опекать свою любимую внучку Женечку, которую родители отправили в детский лагерь «Артек». Сваты так и не научились жить без внучки, но они и не научились жить друг с другом!
Продолжительность: 16 серий по ~ 00:52 минуты
Качество видео: 1080i HDTVRip
Видеокодек: MPEG4/AVC
Битрейт видео: ~7617 Кбит/сек
Размер кадра: 1920х1080
Битрейт аудио: 192 Кбит/сек
Аудио: Russian: 48 kHz, MP2, 2/0 (L,R) chСкриншоты:

Рецензия отMonster ing

«Сваты» — замечательная комедия, по-моему, самая лучшая за последние годы. Как приятно думать, что мы можем создавать такие добрые и качественные комедии, прилагая максимум усилий к этой задаче, задаче сотворить кино.
Создатели «Сватов», без исключения, заслуживают огромнейшего уважения. Они давным давно сумели доказать, что могут производить комедии о сватах, которые всё лучше и лучше становятся с каждым сезоном. Могу согласиться с тем, что сейчас в наше время продолжение того или иного сериала заканчивается очень большим провалом, и к этому можно отнести «Мою прекрасную няню. Жизнь после свадьбы», «Папиных дочек» и ещё кучу разновидного ширпотреба, которым нас пичкают каждый Божий день по телевизору.
Могу облегчённо вздохнуть, этой трагедии со «Сватами» не произошло. Создатели данной комедии очень талантливые люди, знающие жизнь, её семейные проблемы. И, что меня поразило больше всего, это умение извлекать из каждой проблемы долю юмора. Искреннее браво!
Честно признаюсь, я очень нетерпеливо ждал выхода нового сезона «Сватов». На этот раз нас ожидает новое уморительное приключение так полюбившихся нам героев, с новой «порцией» сюжета, шуток. В этой части Сваты едут в Крым, где их внучка Женька отдыхает в лагере под названием «Артек». Опять наши сваты начинают ругаться, ссориться, но потом привыкают, уживаются с друг с другом. Спасибо огромное создателям за новую изюминку в сюжете, которая не исчезает напротяжении всех серий о сватах.
Хочу отметить прекрасный актёрский состав. Здесь собрались по-настоящему талантливые, харизматичные люди, являющиеся мастерами своего дела. Просто восхитительные и добродушные свахи: Людмила Артемьева и Татьяна Кравченко, смешные и «смелые» сваты: Федор Добронравов и Анатолий Васильев. Хочу отметить очень хорошенькую девчушку Софию Стеценку в роли Женьки, которая очень милая и симпатичная.
«Сваты 4» — достойнейшее продолжение моей любимой комедии. Я доволен продолжением. Не буду говорить лишних слов, и без того мною уже всё сказано. Большое спасибо за отличное продолжение.
- Валентина, ваше мясо немного недожаренное.
- Шо?!

MediaInfo

Общее
Уникальный идентификатор : 248314114673349325675050038011075955137 (0xBACF8F147C67DA4F9BC9515B363F09C1)
Полное имя : Сваты-4.1080.HDTVRip\Сваты.s04.e02.1080i.HDTVRip.mkv
Формат : Matroska
Версия формата : Version 4 / Version 2
Размер файла : 2,92 Гбайт
Продолжительность : 52 м.
Общий поток : 7967 Кбит/сек
Дата кодирования : UTC 2010-02-22 21:41:31
Программа кодирования : mkvmerge v5.9.0 ('On The Loose') built on Dec 9 2012 15:37:01
Библиотека кодирования : libebml v1.3.0 + libmatroska v1.4.0
Видео
Идентификатор : 1
Формат : AVC
Формат/Информация : Advanced Video Codec
Профиль формата : High@L4.0
Параметр CABAC формата : Да
Параметр ReFrames формата : 3 кадра
Идентификатор кодека : V_MPEG4/ISO/AVC
Продолжительность : 52 м.
Битрейт : 7617 Кбит/сек
Ширина : 1920 пикселей
Высота : 1080 пикселей
Соотношение сторон : 16:9
Режим частоты кадров : Постоянный
Частота кадров : 25,000 кадров/сек
Стандарт вещания : Component
Цветовое пространство : YUV
Субдискретизация насыщенности : 4:2:0
Битовая глубина : 8 бит
Тип развёртки : Чересстрочная
Порядок развёртки : Верхнее поле первое
Бит/(Пиксели*Кадры) : 0.147
Размер потока : 2,79 Гбайт (96%)
Default : Да
Forced : Нет
Основные цвета : BT.709
Характеристики трансфера : BT.709
Коэффициенты матрицы : BT.709
Аудио
Идентификатор : 2
Формат : MPEG Audio
Версия формата : Version 1
Профиль формата : Layer 2
Идентификатор кодека : A_MPEG/L2
Идентификатор кодека/Подсказка : MP2
Продолжительность : 52 м.
Вид битрейта : Постоянный
Битрейт : 192 Кбит/сек
Каналы : 2 канала
Частота : 48,0 КГц
Метод сжатия : С потерями
Размер потока : 72,1 Мбайт (2%)
Язык : Russian
Default : Да
Forced : Нет
Все раздачи сериалаВсем приятного просмотраВремя раздачи: 24х7 до 20 скачавших,далее по возможности

[Цитировать]



Показать сообщения:    

Текущее время: 11-Дек 16:54

Часовой пояс: UTC + 3


Вы не можете начинать темы
Вы не можете отвечать на сообщения
Вы не можете редактировать свои сообщения
Вы не можете удалять свои сообщения
Вы не можете голосовать в опросах
Вы не можете прикреплять файлы к сообщениям
Вы не можете скачивать файлы

!ВНИМАНИЕ!
Сайт не предоставляет электронные версии произведений, а занимается лишь коллекционированием и каталогизацией ссылок, присылаемых и публикуемых на форуме нашими читателями. Если вы являетесь правообладателем какого-либо представленного материала и не желаете, чтобы ссылка на него находилась в нашем каталоге, свяжитесь с нами, и мы незамедлительно удалим ее. Файлы для обмена на трекере предоставлены пользователями сайта, и администрация не несет ответственности за их содержание. Просьба не заливать файлы, защищенные авторскими правами, а также файлы нелегального содержания!