[ Сегодня идет свободное скачивание без начисления Download ]


Статистика раздачи
Скачал: [ 2 ]
 
   
 
Top  
 
 
Информация о фильме
Название: Змея в тени орла
Оригинальное название: Se ying diu sau
Год выхода: 1978
Жанр: Боевик, боевые искусства, комедия
Режиссер: Юэнь Воо-пин
В ролях: Джеки Чан, Сиу Тиен Юэнь, Янг Ли Хванг, Дин Шек, Рой Хоран, Фунг Харк-Он, Ланг Чан, Чен Тиен Лунг, Йао Лин Чен
О фильме:
Китай времен династии Цин. Бедный сирота Чиен Фу случайно спасает жизнь мастеру кунг-фу Пай Чен-Ченю, последнему оставшемуся в живых представителю школы Змеиного Кулака, уничтоженной зловещим кланом Орлиного Когтя. Благородный мастер берет юношу в ученики, дабы передать ему секреты своего боевого стиля.
А ученик оказывается настолько талантлив, что на основе приемов учителя даже создает собственный стиль! Очень своевременное изобретение, которому вскоре придется пройти самую суровую проверку, когда орда адептов Орлиного Когтя во главе с непобедимым Шень Куаном обнаружат Пай Чень-Ченя и являтся убить его.

Страна: Гонконг
Продолжительность: 01:37:39
Перевод:
1. Профессиональный многоголосый закадровый (Петербург 5-й канал)
2. Профессиональный двухголосый закадровый (Видеосервис)
3. Авторский одноголосый закадровый (Сербин)
4. Авторский одноголосый закадровый (Володарский)
Файл
Кодек: AVC, x264
Качество: BDRip 1080p
Видео: 1920x800 (2,40:1), 8888 kbps, 23,976 fps
Звук:
1. AC-3, 192 kbps, 48 KHz, 2 channels
2. AC-3, 192 kbps, 48 KHz, 2 channels
3. AC-3, 192 kbps, 48 KHz, 2 channels
4. AC-3, 192 kbps, 48 KHz, 2 channels

MediaInfo

General
Unique ID : 253989349249483991811817893164141571179 (0xBF1491BF72750C5CA50ED9FB9B0CEC6B)
Complete name : E:VideoFilmЗмея в тени орла 1080p.mkv
Format : Matroska
Format version : Version 2
File size : 6.59 GiB
Duration : 1h 37mn
Overall bit rate : 9 656 Kbps
Encoded date : UTC 2016-09-01 20:43:21
Writing application : mkvmerge v5.2.1 ('A Far Off Place') built on Jan 2 2012 23:21:10
Writing library : libebml v1.2.3 + libmatroska v1.3.0
Video
ID : 1
Format : AVC
Format/Info : Advanced Video Codec
Format profile : High@L4.1
Format settings, CABAC : Yes
Format settings, ReFrames : 5 frames
Muxing mode : Header stripping
Codec ID : V_MPEG4/ISO/AVC
Duration : 1h 37mn
Bit rate : 8 888 Kbps
Width : 1 920 pixels
Height : 800 pixels
Display aspect ratio : 2.40:1
Frame rate mode : Constant
Frame rate : 23.976 (24000/1001) fps
Color space : YUV
Chroma subsampling : 4:2:0
Bit depth : 8 bits
Scan type : Progressive
Bits/(Pixel*Frame) : 0.241
Stream size : 5.93 GiB (90%)
Title : Snake in the Eagle's Shadow (1978)
Writing library : x264 core 120 r2164 da19765
Encoding settings : cabac=1 / ref=5 / deblock=1:0:0 / analyse=0x3:0x113 / me=umh / subme=8 / psy=1 / psy_rd=1.00:0.00 / mixed_ref=1 / me_range=16 / chroma_me=1 / trellis=1 / 8x8dct=1 / cqm=0 / deadzone=21,11 / fast_pskip=1 / chroma_qp_offset=-2 / threads=3 / sliced_threads=0 / nr=0 / decimate=1 / interlaced=0 / bluray_compat=0 / constrained_intra=0 / bframes=3 / b_pyramid=2 / b_adapt=2 / b_bias=0 / direct=3 / weightb=1 / open_gop=0 / weightp=2 / keyint=240 / keyint_min=23 / scenecut=40 / intra_refresh=0 / rc_lookahead=50 / rc=2pass / mbtree=1 / bitrate=8888 / ratetol=1.0 / qcomp=0.60 / qpmin=0 / qpmax=69 / qpstep=4 / cplxblur=20.0 / qblur=0.5 / ip_ratio=1.40 / aq=1:1.00
Language : English
Default : Yes
Forced : No
Audio #1
ID : 2
Format : AC-3
Format/Info : Audio Coding 3
Mode extension : CM (complete main)
Format settings, Endianness : Big
Muxing mode : Header stripping
Codec ID : A_AC3
Duration : 1h 37mn
Bit rate mode : Constant
Bit rate : 192 Kbps
Channel(s) : 2 channels
Channel positions : Front: L R
Sampling rate : 48.0 KHz
Frame rate : 31.250 fps (1536 spf)
Compression mode : Lossy
Stream size : 134 MiB (2%)
Title : MVO (Петербург 5-й канал)
Language : Russian
Default : Yes
Forced : No
Audio #2
ID : 3
Format : AC-3
Format/Info : Audio Coding 3
Mode extension : CM (complete main)
Format settings, Endianness : Big
Muxing mode : Header stripping
Codec ID : A_AC3
Duration : 1h 37mn
Bit rate mode : Constant
Bit rate : 192 Kbps
Channel(s) : 2 channels
Channel positions : Front: L R
Sampling rate : 48.0 KHz
Frame rate : 31.250 fps (1536 spf)
Compression mode : Lossy
Stream size : 134 MiB (2%)
Title : DVO (Видеосервис)
Language : Russian
Default : No
Forced : No
Audio #3
ID : 4
Format : AC-3
Format/Info : Audio Coding 3
Mode extension : CM (complete main)
Format settings, Endianness : Big
Muxing mode : Header stripping
Codec ID : A_AC3
Duration : 1h 37mn
Bit rate mode : Constant
Bit rate : 192 Kbps
Channel(s) : 2 channels
Channel positions : Front: L R
Sampling rate : 48.0 KHz
Frame rate : 31.250 fps (1536 spf)
Compression mode : Lossy
Stream size : 134 MiB (2%)
Title : AVO (Сербин)
Language : Russian
Default : No
Forced : No
Audio #4
ID : 5
Format : AC-3
Format/Info : Audio Coding 3
Mode extension : CM (complete main)
Format settings, Endianness : Big
Muxing mode : Header stripping
Codec ID : A_AC3
Duration : 1h 37mn
Bit rate mode : Constant
Bit rate : 192 Kbps
Channel(s) : 2 channels
Channel positions : Front: L R
Sampling rate : 48.0 KHz
Frame rate : 31.250 fps (1536 spf)
Compression mode : Lossy
Stream size : 134 MiB (2%)
Title : AVO (Володарский)
Language : Russian
Default : No
Forced : No

Скриншоты

[Цитировать]



Показать сообщения:    

Текущее время: 09-Дек 03:03

Часовой пояс: UTC + 3


Вы не можете начинать темы
Вы не можете отвечать на сообщения
Вы не можете редактировать свои сообщения
Вы не можете удалять свои сообщения
Вы не можете голосовать в опросах
Вы не можете прикреплять файлы к сообщениям
Вы не можете скачивать файлы

!ВНИМАНИЕ!
Сайт не предоставляет электронные версии произведений, а занимается лишь коллекционированием и каталогизацией ссылок, присылаемых и публикуемых на форуме нашими читателями. Если вы являетесь правообладателем какого-либо представленного материала и не желаете, чтобы ссылка на него находилась в нашем каталоге, свяжитесь с нами, и мы незамедлительно удалим ее. Файлы для обмена на трекере предоставлены пользователями сайта, и администрация не несет ответственности за их содержание. Просьба не заливать файлы, защищенные авторскими правами, а также файлы нелегального содержания!