[ Сегодня идет свободное скачивание без начисления Download ]


Статистика раздачи
Нет
 
   
 
Top  
 
 
-Легавый (1-24 серии из 24) (2012) DVB- Оригинальное название: Легавый
Год выпуска: 2012
Страна: Россия / Star Media
Жанр: детектив-
Премьера (РФ): 24 декабря 2012 (НТВ)
Режиссер: Рустам Уразаев, Сергей Артимович
Актеры: Эдуард Флёров, Николай Козак, Михаил Горевой, Елена Полякова, Михаил Павлик, Михаил Асанкин, Сергей Шарифуллин, Андрей Гусев, Евгений Мундум, Борис Шевченко, Евгений Березовский, Вера Смолина, Мария Шамшина, Юрий Брешин, Константин Глушков, Владислав Резник, Оксана Гуляева, Анастасия Макеева....
Описание фильма:
1948 год. Бывший фронтовой разведчик, капитан Юрий Козырев (Эдуард Флёров), попавший в плен в последние дни войны и получивший за это срок, выходит из лагеря. Теперь он полностью оправдан и восстановлен в правах. По дороге домой Козырев видит, что на склад напали бандиты. Фронтовая выучка помогает ему обзевредить банду. Майор милиции Грунин предлагает Юрию работу в органах, на Петровке, но Козырев хочет домой, в Петрово. Но возвращение домой не приносит ему большой радости. Юрий узнает, что его отец пропал без вести на фронте, мать умерла, а любимая девушка Лариса вышла замуж за другого..-Продолжительность: серия ~ 00:45
Качество видео: DVB
Формат : MPEG-PS
Видеокодек: MPEG2
Битрейт видео: ~5141 kbps avg
Размер кадра: 720x576**768х576 (4:3), 25.000 fps
Аудиокодек: MPEG Audio Layer 2
Аудио: 48 kHz, 2 ch, ~192 kbps avg

MediaInfo:

Format : MPEG-PS
File size : 1.68 GiB
Duration : 44mn 20s
Overall bit rate mode : Variable
Overall bit rate : 5 441 Kbps
Writing library : (c) 1998-2012 Womble Multimedia, Inc. / MPEG Video Wizard DVD 5.0.1.100 (03/2011)
Video
ID : 224 (0xE0)
Format : MPEG Video
Format version : Version 2
Format profile : [email protected]
Format settings, BVOP : Yes
Format settings, Matrix : Custom
Format settings, GOP : Variable
Duration : 44mn 20s
Bit rate mode : Variable
Bit rate : 5 141 Kbps
Maximum bit rate : 15.0 Mbps
Width : 720 pixels
Height : 576 pixels
Display aspect ratio : 4:3
Frame rate : 25.000 fps
Standard : PAL
Color space : YUV
Chroma subsampling : 4:2:0
Bit depth : 8 bits
Scan type : Interlaced
Scan order : Top Field First
Compression mode : Lossy
Bits/(Pixel*Frame) : 0.496
Stream size : 1.59 GiB (94%)
Audio
ID : 192 (0xC0)
Format : MPEG Audio
Format version : Version 1
Format profile : Layer 2
Duration : 44mn 20s
Bit rate mode : Constant
Bit rate : 192 Kbps
Channel(s) : 2 channels
Sampling rate : 48.0 KHz
Compression mode : Lossy
Delay relative to video : -40ms
Stream size : 60.9 MiB (4%)
Скриншоты:

Легавый (2012) [Серии 1-24 из 24] SATRipВремя раздачи: 24/7

[Цитировать]



Показать сообщения:    

Текущее время: 04-Дек 23:27

Часовой пояс: UTC + 3


Вы не можете начинать темы
Вы не можете отвечать на сообщения
Вы не можете редактировать свои сообщения
Вы не можете удалять свои сообщения
Вы не можете голосовать в опросах
Вы не можете прикреплять файлы к сообщениям
Вы не можете скачивать файлы

!ВНИМАНИЕ!
Сайт не предоставляет электронные версии произведений, а занимается лишь коллекционированием и каталогизацией ссылок, присылаемых и публикуемых на форуме нашими читателями. Если вы являетесь правообладателем какого-либо представленного материала и не желаете, чтобы ссылка на него находилась в нашем каталоге, свяжитесь с нами, и мы незамедлительно удалим ее. Файлы для обмена на трекере предоставлены пользователями сайта, и администрация не несет ответственности за их содержание. Просьба не заливать файлы, защищенные авторскими правами, а также файлы нелегального содержания!