[ Сегодня идет свободное скачивание без начисления Download ]


Статистика раздачи
Нет
 
   
 
Top  
 
 
Марлоу / Marlowe Год выпуска: 1969
Страна: США
Жанр: Детектив
Продолжительность: 01:35:37
Перевод: Профессиональный (многоголосый закадровый) 5 Канал
Перевод: Авторский (одноголосый закадровый) П. Карцев
Режиссер: Пол Богарт
В ролях: Джеймс Гарнер, Гэйл Ханникат, Кэррол О’Коннор, Рита Морено, Шарон Фаррелл, Уильям Дэниелс, Х. М. Вайнэнт, Джеки Кугэн, Кеннет Тоби, Брюс Ли, Кристофер Кэри, Джордж Тайн
Описание: На матовом дверном стекле черной потрескавшейся краской написано: «Филип Марлоу. Частный детектив. Если вы не из Манхэттена, штат Канзас, входите смело — здесь только я и большая сине-зеленая муха». И в кабинет известного сыщика заглядывает милейшая особа, у которой пропал брат.

Это один из двух фильмов, где Брюс Ли говорит своим естественным голосом - второй фильм "Выход Дракона".
Это так же единственный фильм, где Брюс Ли играет злодея
.
Качество: HDTVRip 720p
Формат: MKV
Видео кодек: H264
Аудио кодек: AC3
Видео: MPEG4 Video (H264), 1280x720, 29.97fps, 7000 kbps
Аудио #01: Русский: Dolby AC3, 48000 Hz, 2ch, 192 kbps - Многоголосый, 5 Канал
Аудио #02: Русский: Dolby AC3, 48000 Hz, 2ch, 192 kbps - Одноголосый, П. Карцев
Аудио #03: Английский: Dolby AC3, 48000 Hz, 2ch, 192 kbps
Сэмпл

MediaInfo:

General
Unique ID : 179994206329563354835015229509172880767 (0x87699F88A28444579E88F723FBC6657F)
Complete name : F:DVDRip1969 Марлоу.mkv
Format : Matroska
Format version : Version 4 / Version 2
File size : 5.06 GiB
Duration : 1 h 35 min
Overall bit rate : 7 578 kb/s
Movie name : 1969 Марлоу / likko for korsar.tv
Encoded date : UTC 2016-09-07 13:57:44
Writing application : mkvmerge v8.3.0 ('Over the Horizon') 64bit
Writing library : libebml v1.3.1 + libmatroska v1.4.2
Video
ID : 1
Format : AVC
Format/Info : Advanced Video Codec
Format profile : High@L4.1
Format settings, CABAC : Yes
Format settings, ReFrames : 9 frames
Codec ID : V_MPEG4/ISO/AVC
Duration : 1 h 35 min
Bit rate : 7 000 kb/s
Width : 1 280 pixels
Height : 720 pixels
Display aspect ratio : 16:9
Frame rate mode : Constant
Frame rate : 29.970 (30000/1001) FPS
Color space : YUV
Chroma subsampling : 4:2:0
Bit depth : 8 bits
Scan type : Progressive
Bits/(Pixel*Frame) : 0.253
Stream size : 4.67 GiB (92%)
Title : 1969 Марлоу
Writing library : x264 core 146 r2538 121396c
Encoding settings : cabac=1 / ref=9 / deblock=1:-1:-1 / analyse=0x3:0x133 / me=umh / subme=11 / psy=1 / psy_rd=1.15:0.20 / mixed_ref=1 / me_range=32 / chroma_me=1 / trellis=2 / 8x8dct=1 / cqm=0 / deadzone=21,11 / fast_pskip=0 / chroma_qp_offset=-3 / threads=12 / lookahead_threads=3 / sliced_threads=0 / nr=0 / decimate=1 / interlaced=0 / bluray_compat=0 / constrained_intra=0 / bframes=10 / b_pyramid=2 / b_adapt=2 / b_bias=0 / direct=3 / weightb=1 / open_gop=0 / weightp=2 / keyint=250 / keyint_min=25 / scenecut=40 / intra_refresh=0 / rc=2pass / mbtree=0 / bitrate=7000 / ratetol=1.0 / qcomp=0.60 / qpmin=0 / qpmax=69 / qpstep=4 / cplxblur=20.0 / qblur=0.5 / ip_ratio=1.40 / pb_ratio=1.30 / aq=2:1.00
Language : English
Default : Yes
Forced : No
Audio #1
ID : 2
Format : AC-3
Format/Info : Audio Coding 3
Mode extension : CM (complete main)
Format settings, Endianness : Big
Codec ID : A_AC3
Duration : 1 h 35 min
Bit rate mode : Constant
Bit rate : 192 kb/s
Channel(s) : 2 channels
Channel positions : Front: L R
Sampling rate : 48.0 kHz
Frame rate : 31.250 FPS (1536 spf)
Compression mode : Lossy
Stream size : 131 MiB (3%)
Title : Многоголосый, 5 Канал
Language : Russian
Default : Yes
Forced : No
Audio #2
ID : 3
Format : AC-3
Format/Info : Audio Coding 3
Mode extension : CM (complete main)
Format settings, Endianness : Big
Codec ID : A_AC3
Duration : 1 h 35 min
Bit rate mode : Constant
Bit rate : 192 kb/s
Channel(s) : 2 channels
Channel positions : Front: L R
Sampling rate : 48.0 kHz
Frame rate : 31.250 FPS (1536 spf)
Compression mode : Lossy
Stream size : 131 MiB (3%)
Title : Одноголосый, Пётр Карцев
Language : Russian
Default : No
Forced : No
Audio #3
ID : 4
Format : AC-3
Format/Info : Audio Coding 3
Mode extension : CM (complete main)
Format settings, Endianness : Big
Codec ID : A_AC3
Duration : 1 h 35 min
Bit rate mode : Constant
Bit rate : 192 kb/s
Channel(s) : 2 channels
Channel positions : Front: L R
Sampling rate : 48.0 kHz
Frame rate : 31.250 FPS (1536 spf)
Compression mode : Lossy
Stream size : 131 MiB (3%)
Language : English
Default : No
Forced : No
Menu
00:00:00.000 : en:Chapter 01
00:01:54.114 : en:Chapter 02
00:05:12.312 : en:Chapter 03
00:08:45.525 : en:Chapter 04
00:15:07.907 : en:Chapter 05
00:19:35.174 : en:Chapter 06
00:24:19.458 : en:Chapter 07
00:30:21.820 : en:Chapter 08
00:32:35.954 : en:Chapter 09
00:35:44.142 : en:Chapter 10
00:38:22.300 : en:Chapter 11
00:41:53.511 : en:Chapter 12
00:45:57.755 : en:Chapter 13
00:50:35.032 : en:Chapter 14
00:52:50.167 : en:Chapter 15
00:57:32.449 : en:Chapter 16
01:00:25.622 : en:Chapter 17
01:05:48.945 : en:Chapter 18
01:07:58.074 : en:Chapter 19
01:10:14.210 : en:Chapter 20
01:14:54.490 : en:Chapter 21
01:18:07.683 : en:Chapter 22
01:23:26.001 : en:Chapter 23
01:27:02.217 : en:Chapter 24
01:30:26.421 : en:Chapter 25
01:33:22.597 : en:Chapter 26
01:34:39.674 : en:Chapter 27
01:35:12.707 : en:Chapter 28

Скриншоты:


[Цитировать]

Топик был перенесен из форума Классика мирового кинематографа в форум Классика зарубежного кино (HD Video)
Scorpio



Показать сообщения:    

Текущее время: 03-Дек 01:21

Часовой пояс: UTC + 3


Вы не можете начинать темы
Вы не можете отвечать на сообщения
Вы не можете редактировать свои сообщения
Вы не можете удалять свои сообщения
Вы не можете голосовать в опросах
Вы не можете прикреплять файлы к сообщениям
Вы не можете скачивать файлы

!ВНИМАНИЕ!
Сайт не предоставляет электронные версии произведений, а занимается лишь коллекционированием и каталогизацией ссылок, присылаемых и публикуемых на форуме нашими читателями. Если вы являетесь правообладателем какого-либо представленного материала и не желаете, чтобы ссылка на него находилась в нашем каталоге, свяжитесь с нами, и мы незамедлительно удалим ее. Файлы для обмена на трекере предоставлены пользователями сайта, и администрация не несет ответственности за их содержание. Просьба не заливать файлы, защищенные авторскими правами, а также файлы нелегального содержания!