[ Сегодня идет свободное скачивание без начисления Download ]


Статистика раздачи
Нет
 
   
 
Top  
 
 
Осада / The Siege (1998) BDRip 1080p Информация о фильме
Название: Осада
Оригинальное название: The Siege
Год выхода: 1998
Жанр: боевик, триллер, драма, криминал
Режиссер: Эдвард Цвик
В ролях: Дензел Вашингтон, Аннетт Бенинг, Брюс Уиллис, Тони Шэлуб, Сами Буажила, Ахмед Бен Ларби, Мосле Мохамед, Лианна Пай, Марк Вэлли, Джек Гуолтни
О фильме: Когда в Бруклине взлетает на воздух автобус и на улицах Нью-Йорка разворачивается кровавый террор, Хаб — Хаббарт, глава Объединенного Антитеррористического Подразделения ФБР получает задание задержать террористов и предъявить им обвинение. Элиза Крафт — тайный оперативный агент ЦРУ. Она обладает ценными источниками информации в среде американцев арабского происхождения и тесно связана с ними.
Хаб и Элиза работают вместе, объединившись для совместной борьбы против террористической группы. Но этого оказывается недостаточно. Требования общественности обеспечить безопасность граждан вынуждают президента США объявить чрезвычайное положение и обратиться за помощью к армии. Генерал Уильям Деверо решительно берется за дело по наведению военного порядка.

Выпущено: Twentieth Century Fox Film Corporation
Продолжительность: 01:56:06
Перевод: Дублированный (лицензия) + Авторский (Ю.Живов)
Файл
Кодек: x264
Качество: BDRip (источник: Blu-ray Disc)
Видео: 1920x812 (2,35:1), 23.976 fps, 8290 kbps
Аудио #1: AC-3, 6 ch, 448 kbps (Дубляж)
Аудио #2: AC-3, 6 ch, 384 kbps (Одноголосый закадровый, Ю.Живов)
Аудио #3: AC-3, 6 ch, 448 kbps (Original)
Субтитры: Русские, Английские
Скачать: сэмпл
Скриншоты

MI

Общее
Уникальный идентификатор : 208398912701416819051536675200678706167 (0x9CC82BAEBB3EE75E98067F0EE3033BF7)
Полное имя : The.Siege.1998.BDRip.1080p.Rus.Eng.mkv
Формат : Matroska
Версия формата : Version 2
Размер файла : 7,76 Гбайт
Продолжительность : 1 ч. 56 м.
Общий поток : 9567 Кбит/сек
Название фильма : Осада / The Siege (1998)
Дата кодирования : UTC 2013-10-01 19:11:40
Программа кодирования : mkvmerge v5.8.0 ('No Sleep / Pillow') built on Sep 2 2012 15:37:04
Библиотека кодирования : libebml v1.2.3 + libmatroska v1.3.0
Видео
Идентификатор : 1
Формат : AVC
Формат/Информация : Advanced Video Codec
Профиль формата : [email protected]
Параметр CABAC формата : Да
Параметр ReFrames формата : 5 кадров
Идентификатор кодека : V_MPEG4/ISO/AVC
Продолжительность : 1 ч. 56 м.
Битрейт : 8290 Кбит/сек
Ширина : 1920 пикселей
Высота : 812 пикселей
Соотношение сторон : 2,35:1
Частота кадров : 23,976 кадра/сек
Цветовое пространство : YUV
Субдискретизация насыщенности : 4:2:0
Битовая глубина : 8 бит
Тип развёртки : Прогрессивная
Бит/(Пиксели*Кадры) : 0.222
Размер потока : 6,57 Гбайт (85%)
Заголовок : Release by AlexKa
Библиотека кодирования : x264 core 138 r2358 9e941d1
Настройки программы : cabac=1 / ref=5 / deblock=1:-3:-3 / analyse=0x3:0x133 / me=umh / subme=11 / psy=1 / psy_rd=1.00:0.10 / mixed_ref=1 / me_range=32 / chroma_me=1 / trellis=2 / 8x8dct=1 / cqm=0 / deadzone=21,11 / fast_pskip=0 / chroma_qp_offset=-3 / threads=12 / lookahead_threads=1 / sliced_threads=0 / nr=0 / decimate=0 / interlaced=0 / bluray_compat=0 / constrained_intra=0 / bframes=6 / b_pyramid=2 / b_adapt=2 / b_bias=0 / direct=3 / weightb=1 / open_gop=0 / weightp=2 / keyint=240 / keyint_min=23 / scenecut=40 / intra_refresh=0 / rc=2pass / mbtree=0 / bitrate=8290 / ratetol=1.0 / qcomp=0.60 / qpmin=0 / qpmax=69 / qpstep=4 / cplxblur=20.0 / qblur=0.5 / ip_ratio=1.40 / pb_ratio=1.30 / aq=1:0.80
Язык : English
Аудио #1
Идентификатор : 2
Формат : AC-3
Формат/Информация : Audio Coding 3
Расширение режима : CM (complete main)
Идентификатор кодека : A_AC3
Продолжительность : 1 ч. 56 м.
Вид битрейта : Постоянный
Битрейт : 448 Кбит/сек
Каналы : 6 каналов
Расположение каналов : Front: L C R, Side: L R, LFE
Частота : 48,0 КГц
Битовая глубина : 16 бит
Метод сжатия : С потерями
Размер потока : 372 Мбайт (5%)
Заголовок : Дубляж
Язык : Russian
Аудио #2
Идентификатор : 3
Формат : AC-3
Формат/Информация : Audio Coding 3
Расширение режима : CM (complete main)
Идентификатор кодека : A_AC3
Продолжительность : 1 ч. 56 м.
Вид битрейта : Постоянный
Битрейт : 384 Кбит/сек
Каналы : 6 каналов
Расположение каналов : Front: L C R, Side: L R, LFE
Частота : 48,0 КГц
Битовая глубина : 16 бит
Метод сжатия : С потерями
Размер потока : 319 Мбайт (4%)
Заголовок : Одноголосый закадровый, Ю.Живов
Язык : Russian
Аудио #3
Идентификатор : 4
Формат : AC-3
Формат/Информация : Audio Coding 3
Расширение режима : CM (complete main)
Идентификатор кодека : A_AC3
Продолжительность : 1 ч. 56 м.
Вид битрейта : Постоянный
Битрейт : 448 Кбит/сек
Каналы : 6 каналов
Расположение каналов : Front: L C R, Side: L R, LFE
Частота : 48,0 КГц
Битовая глубина : 16 бит
Метод сжатия : С потерями
Размер потока : 372 Мбайт (5%)
Заголовок : Original
Язык : English
Текст #1
Идентификатор : 5
Формат : UTF-8
Идентификатор кодека : S_TEXT/UTF8
Идентификатор кодека/Информация : UTF-8 Plain Text
Заголовок : Rus
Язык : Russian
Текст #2
Идентификатор : 6
Формат : UTF-8
Идентификатор кодека : S_TEXT/UTF8
Идентификатор кодека/Информация : UTF-8 Plain Text
Заголовок : Eng
Язык : English
Меню
00:00:00.000 : :Chapter 01
00:04:32.105 : :Chapter 02
00:07:38.624 : :Chapter 03
00:10:06.606 : :Chapter 04
00:15:15.122 : :Chapter 05
00:18:36.865 : :Chapter 06
00:26:13.530 : :Chapter 07
00:31:30.179 : :Chapter 08
00:35:22.495 : :Chapter 09
00:43:58.093 : :Chapter 10
00:46:22.488 : :Chapter 11
00:49:59.788 : :Chapter 12
00:53:43.720 : :Chapter 13
00:55:24.487 : :Chapter 14
00:58:01.436 : :Chapter 15
01:00:46.434 : :Chapter 16
01:04:33.870 : :Chapter 17
01:10:24.970 : :Chapter 18
01:12:42.858 : :Chapter 19
01:15:55.175 : :Chapter 20
01:19:14.666 : :Chapter 21
01:21:40.896 : :Chapter 22
01:24:37.989 : :Chapter 23
01:29:39.248 : :Chapter 24
01:32:02.058 : :Chapter 25
01:33:35.443 : :Chapter 26
01:39:29.046 : :Chapter 27
01:43:07.806 : :Chapter 28
01:44:30.389 : :Chapter 29
01:49:23.098 : :Chapter 30
01:55:58.618 : :Chapter 31

x264

x264 [info]: frame I:1483 Avg QP:17.55 size:162579
x264 [info]: frame P:33862 Avg QP:20.11 size: 76963
x264 [info]: frame B:131668 Avg QP:22.16 size: 33163

[Цитировать]



Показать сообщения:    

Текущее время: 05-Дек 13:32

Часовой пояс: UTC + 3


Вы не можете начинать темы
Вы не можете отвечать на сообщения
Вы не можете редактировать свои сообщения
Вы не можете удалять свои сообщения
Вы не можете голосовать в опросах
Вы не можете прикреплять файлы к сообщениям
Вы не можете скачивать файлы

!ВНИМАНИЕ!
Сайт не предоставляет электронные версии произведений, а занимается лишь коллекционированием и каталогизацией ссылок, присылаемых и публикуемых на форуме нашими читателями. Если вы являетесь правообладателем какого-либо представленного материала и не желаете, чтобы ссылка на него находилась в нашем каталоге, свяжитесь с нами, и мы незамедлительно удалим ее. Файлы для обмена на трекере предоставлены пользователями сайта, и администрация не несет ответственности за их содержание. Просьба не заливать файлы, защищенные авторскими правами, а также файлы нелегального содержания!