[ Сегодня идет свободное скачивание без начисления Download ]


Статистика раздачи
Нет
 
   
 
Top  
 
 
-Бедные родственники (16 серий из 16) (2012) DVB- Русское название: Бедные родственники
Оригинальное название: Бедные родственники
Год выпуска: 2012
Страна: Россия / Кинокомпания "Русское"
Жанр: мелодрама-
Премьера (РФ): 11 декабря 2012 (Россия 1)
Режиссер: Роман Просвирнин
Актеры: Анастасия Балякина, Василий Лановой, Ирина Купченко, Алексей Зубков, Дарья Грачёва, Агриппина Стеклова, Иван Добронравов, Валерий Баринов, Игорь Ясулович, Сергей Барковский, Анастасия Веденская, Маша Астахова, Денис Васильев, Денис Жариков, Юлия Яблонская, Роман Курцын, Павел Вишняков, Татьяна Кузнецова, Борис Смолкин, Анатолий Кощеев, Елена Дубровская, Михаил Богдасаров, Тамара Сёмина, Сергей Серов, Виктор Бабич, Юрий Бондаренко

Описание фильма:
По мотивам романа Елены Колиной "Сага о бедных Гольдманах".
СССР, послевоенное время. В жизни маленькой Симы происходит трагедия – ее родители объявлены «врагами народа» и репрессированы, а девочка вынуждена уехать из Москвы в деревню. Возвратившись в 17 лет для продолжения учебы, Серафима обнаруживает, что ее комнату отдали постороннему человеку. С поступлением тоже не ладится – ее отказываются принимать из-за биографии родителей. На счастье, хозяйка ее комнаты, стенографистка Кира Петровна, учит девушку печатать и пристраивает на работу к бывшему партийному начальнику, который хочет написать книгу.
-Продолжительность: серия ~ 00:42
Качество видео: DVB
Видеокодек: MPEG2
Битрейт видео: ~5350 kbps avg
Размер кадра: 720x576 (4:3), 25.000 fps
Аудиокодек: MPEG Audio Layer 2
Аудио: 48 kHz, 2 ch, ~256 kbps avg
Субтитры: отсутствуют

MediaInfo:

Формат : MPEG-PS
Размер файла : 1,69 Гбайт
Продолжительность : 42 м.
Режим общего битрейта : Переменный
Общий поток : 5720 Кбит/сек
Библиотека кодирования : (c) 1998-2012 Womble Multimedia, Inc. / MPEG Video Wizard DVD 5.0.1.100 (03/2011) / Sep 7 2012
Видео
Идентификатор : 224 (0xE0)
Формат : MPEG Video
Версия формата : Version 2
Профиль формата : Main@Main
Параметр BVOP формата : Да
Параметр матрицы формата : Выборочная
Параметр GOP формата : M=3, N=15
Продолжительность : 42 м.
Вид битрейта : Переменный
Битрейт : 5350 Кбит/сек
Максимальный битрейт : 15,0 Мбит/сек
Ширина : 720 пикселей
Высота : 576 пикселей
Соотношение сторон : 4:3
Частота кадров : 25,000 кадров/сек
Стандарт вещания : PAL
Цветовое пространство : YUV
Субдискретизация насыщенности : 4:2:0
Битовая глубина : 8 бит
Тип развёртки : Чересстрочная
Порядок развёртки : Верхнее поле первое
Метод сжатия : С потерями
Бит/(Пиксели*Кадры) : 0.516
Размер потока : 1,58 Гбайт (94%)
Аудио
Идентификатор : 192 (0xC0)
Формат : MPEG Audio
Версия формата : Version 1
Профиль формата : Layer 2
Продолжительность : 42 м.
Вид битрейта : Постоянный
Битрейт : 256 Кбит/сек
Каналы : 2 канала
Частота : 48,0 КГц
Метод сжатия : С потерями
Задержка видео : -40 мс.
Размер потока : 77,3 Мбайт (4%)
Скриншоты:


Бедные родственники (2012) SATRip [1-16 серии из 16]
Время раздачи: 24/7

[Цитировать]



Показать сообщения:    

Текущее время: 11-Дек 05:15

Часовой пояс: UTC + 3


Вы не можете начинать темы
Вы не можете отвечать на сообщения
Вы не можете редактировать свои сообщения
Вы не можете удалять свои сообщения
Вы не можете голосовать в опросах
Вы не можете прикреплять файлы к сообщениям
Вы не можете скачивать файлы

!ВНИМАНИЕ!
Сайт не предоставляет электронные версии произведений, а занимается лишь коллекционированием и каталогизацией ссылок, присылаемых и публикуемых на форуме нашими читателями. Если вы являетесь правообладателем какого-либо представленного материала и не желаете, чтобы ссылка на него находилась в нашем каталоге, свяжитесь с нами, и мы незамедлительно удалим ее. Файлы для обмена на трекере предоставлены пользователями сайта, и администрация не несет ответственности за их содержание. Просьба не заливать файлы, защищенные авторскими правами, а также файлы нелегального содержания!