[ Сегодня идет свободное скачивание без начисления Download ]


Статистика раздачи
Нет
 
   
 
Top  
 
 
Последняя минута / Äkkilähtö (2016) BDRip - Производство: Финляндия
Жанр: Драма
Режиссер: Тийна Люми
Актеры: Веера В. Вило, Юсси Ватанен, Иина Куустонен, Вилле Тиихонен, Эмилия Синисало, Мария Пакален
Описание:
Женщина-риэлтор Катри собирается в отпуск с подружками, но жених неожиданно делает ей предложение! И вот оно - женское счастье уже так близко! Но придя в гости к жениху, она обнаруживает там каких-то посторонних людей, сам жених на её глазах увозит свою уже сильно беременную любовницу в роддом, оставив в квартире сумку с кучей Евро...

Дата мировой премьеры: 26 февраля 2016
Дата российской премьеры: -
Продолжительность: 01:38:41
Качество видео: BDRip СЭМПЛ
Перевод: Одноголосый закадровый, любительский ненормативная лексика!
Видео: Xvid, 720x304, 1 661 kbps
Аудио: AC3, 6 ch, 448 kbps

Mediainfo:

Akkilahto.2016.BDRip.avi
Format                      : AVI
Format/Info                 : Audio Video Interleave
File size                   : 1.46 GiB
Duration                    : 1 h 38 min
Overall bit rate            : 2 119 kb/s
Writing application         : VirtualDubMod 1.5.10.2 (build 2540/release)
Writing library             : VirtualDubMod build 2540/release
Video
ID                          : 0
Format                      : MPEG-4 Visual
Format profile              : Advanced [email protected]
Format settings, BVOP       : 1
Format settings, QPel       : No
Format settings, GMC        : No warppoints
Format settings, Matrix     : Default (MPEG)
Codec ID                    : XVID
Codec ID/Hint               : XviD
Duration                    : 1 h 38 min
Bit rate                    : 1 661 kb/s
Width                       : 720 pixels
Height                      : 304 pixels
Display aspect ratio        : 2.35:1
Frame rate                  : 23.976 (24000/1001) FPS
Color space                 : YUV
Chroma subsampling          : 4:2:0
Bit depth                   : 8 bits
Scan type                   : Progressive
Compression mode            : Lossy
Bits/(Pixel*Frame)          : 0.317
Stream size                 : 1.15 GiB (78%)
Writing library             : XviD 67
Audio
ID                          : 1
Format                      : AC-3
Format/Info                 : Audio Coding 3
Mode extension              : CM (complete main)
Format settings, Endianness : Big
Codec ID                    : 2000
Duration                    : 1 h 38 min
Bit rate mode               : Constant
Bit rate                    : 448 kb/s
Channel(s)                  : 6 channels
Channel positions           : Front: L C R, Side: L R, LFE
Sampling rate               : 48.0 kHz
Frame rate                  : 31.250 FPS (1536 spf)
Compression mode            : Lossy
Stream size                 : 316 MiB (21%)
Alignment                   : Split accross interleaves
Interleave, duration        : 42  ms (1.00 video frame)
Interleave, preload duratio : 500  ms
Title                       : RUS - AVO - Karpovsky
Скриншоты:

[Цитировать]



Показать сообщения:    

Текущее время: 06-Дек 15:11

Часовой пояс: UTC + 3


Вы не можете начинать темы
Вы не можете отвечать на сообщения
Вы не можете редактировать свои сообщения
Вы не можете удалять свои сообщения
Вы не можете голосовать в опросах
Вы не можете прикреплять файлы к сообщениям
Вы не можете скачивать файлы

!ВНИМАНИЕ!
Сайт не предоставляет электронные версии произведений, а занимается лишь коллекционированием и каталогизацией ссылок, присылаемых и публикуемых на форуме нашими читателями. Если вы являетесь правообладателем какого-либо представленного материала и не желаете, чтобы ссылка на него находилась в нашем каталоге, свяжитесь с нами, и мы незамедлительно удалим ее. Файлы для обмена на трекере предоставлены пользователями сайта, и администрация не несет ответственности за их содержание. Просьба не заливать файлы, защищенные авторскими правами, а также файлы нелегального содержания!