[ Сегодня идет свободное скачивание без начисления Download ]


Статистика раздачи
Нет
 
   
 
Top  
 
 
-Литейный (7 сезон, 1-32 серии) (2012) DVB- Русское название: Литейный
Оригинальное название: Литейный
Год выпуска: 2012
Страна: Россия
Жанр: детектив, криминал-
Премьера (РФ): 30 марта 2009
Режиссер: Игорь Москвитин, Сергей Полуянов, Андрей Либенсон, Шакир Загидуллин, Евгений Малков, Максим Бриус, Иван Мошняков, Андрей Иванов, Игорь Драка, Максим Демченко
Актеры: Анна Лутцева, Екатерина Проскурина, Татьяна Колганова, Константин Соловьёв, Анвар Либабов, Андрей Федорцов, Анастасия Мельникова, Сергей Селин, Алексей Нилов, Евгений Сидихин

Описание фильма:
В новом сезоне сериала "Литейный" зрители НТВ снова встретятся с сотрудниками знаменитого Спецотдела, созданного для расследования особо важных дел. Преступники на улицах не перевелись, и борьба с ними становится куда опаснее. Для этой борьбы нужны суперпрофессионалы с безупречной репутацией. Спецотдел по-прежнему возглавляет генерал Шаламов (Евгений Сидихин), а под его руководством трудится давно знакомая всем слаженная команда - бывший работник ФСБ подполковник Андрей Ухов, психоаналитик Анастасия Мельникова, адвокат Алексей Нилов, бывший спецназовец полковник Сергей Селин, майор Виктор Скворцов и компьютерный гений Антон Грошев. Они фанаты своего дела, готовые жертвовать личной жизнью и собой ради справедливости!
Каждая серия - законченная история. Группе приходится решать в ходе расследования опасные задачи и даже рисковать собственной жизнью. Герои столкнутся со сложнейшими делами: наркомафия, расхищение национальных богатств, шпионаж... ..
-Продолжительность: серия ~ 00:42
Качество видео: DVB
Видеокодек: MPEG2
Битрейт видео: ~5142 kbps avg
Размер кадра: 720x576 (4:3), 25.000 fps
Аудиокодек: MPEG Audio Layer 2
Аудио: 48 kHz, 2 ch, ~192 kbps avg
Субтитры: отсутствуют

MediaInfo:

Формат : MPEG-PS
Размер файла : 1,62 Гбайт
Продолжительность : 42 м.
Режим общего битрейта : Переменный
Общий поток : 5442 Кбит/сек
Видео
Идентификатор : 224 (0xE0)
Формат : MPEG Video
Версия формата : Version 2
Профиль формата : [email protected]
Параметр BVOP формата : Да
Параметр матрицы формата : Выборочная
Параметр GOP формата : Variable
Продолжительность : 42 м.
Вид битрейта : Переменный
Битрейт : 5142 Кбит/сек
Максимальный битрейт : 15,0 Мбит/сек
Ширина : 720 пикселей
Высота : 576 пикселей
Соотношение сторон : 4:3
Частота кадров : 25,000 кадров/сек
Стандарт вещания : PAL
Цветовое пространство : YUV
Субдискретизация насыщенности : 4:2:0
Битовая глубина : 8 бит
Тип развёртки : Чересстрочная
Порядок развёртки : Верхнее поле первое
Метод сжатия : С потерями
Бит/(Пиксели*Кадры) : 0.496
Размер потока : 1,53 Гбайт (94%)
Аудио
Идентификатор : 192 (0xC0)
Формат : MPEG Audio
Версия формата : Version 1
Профиль формата : Layer 2
Продолжительность : 42 м.
Вид битрейта : Постоянный
Битрейт : 192 Кбит/сек
Каналы : 2 канала
Частота : 48,0 КГц
Метод сжатия : С потерями
Размер потока : 58,4 Мбайт (4%)
Скриншоты:


Литейный
Время раздачи: 24/7

[Цитировать]



Показать сообщения:    

Текущее время: 06-Дек 13:18

Часовой пояс: UTC + 3


Вы не можете начинать темы
Вы не можете отвечать на сообщения
Вы не можете редактировать свои сообщения
Вы не можете удалять свои сообщения
Вы не можете голосовать в опросах
Вы не можете прикреплять файлы к сообщениям
Вы не можете скачивать файлы

!ВНИМАНИЕ!
Сайт не предоставляет электронные версии произведений, а занимается лишь коллекционированием и каталогизацией ссылок, присылаемых и публикуемых на форуме нашими читателями. Если вы являетесь правообладателем какого-либо представленного материала и не желаете, чтобы ссылка на него находилась в нашем каталоге, свяжитесь с нами, и мы незамедлительно удалим ее. Файлы для обмена на трекере предоставлены пользователями сайта, и администрация не несет ответственности за их содержание. Просьба не заливать файлы, защищенные авторскими правами, а также файлы нелегального содержания!