[ Today is free to download without increasing Download ]

DL-List and Torrent activity
Отмель / The ShallowsСтрана: США
Производство: Columbia Pictures, Ombra Films, Weimaraner Republic Pictures
Год выпуска: 2016
Жанр: ужасы, триллер, драма
Продолжительность: 01:26:12
Режиссер: Хауме Кольет-Серра
Автор сценария: Энтони Джазвински
В ролях: Блейк Лайвли, Оскар Хаэнада, Бретт Каллен, Седона Ледже, Энди Корзо
Описание: Бескрайний океан, безлюдный пляж и идеальная погода для сёрфингистов в поисках хорошей волны. Казалось бы, ничто не предвещает беды для очаровательной любительницы сёрфинга в одиночку. Разве что свидание тет-а-тет с гигантской акулой, которая загонит спортсменку на песчаную отмель и не отступит до тех пор, пока не получит своё...

Перевод: Профессиональный (полное дублирование) | iTunes
Субтитры: Русские форсированные (скачать отдельно)-Качество: WEB-DLRip
Формат: АVI
Видео кодек: XviD
Аудио кодек: МР3
Видео: 688x288 (2.40:1), 23.976 fps, XviD build 73 ~1 071 kbps avg
Аудио: 48.0 kHz, MPEG Layer 3, 2 ch, ~128.00 kbps avg
Бюджет: $17 000 000
Дата премьеры (мир): 24 июня 2016
Дата премьеры (РФ): 7 июля 2016, «WDSSPR»

Media Info

Format : AVI
Format/Info : Audio Video Interleave
File size : 745 MiB
Duration : 1 h 26 min
Overall bit rate : 1 208 kb/s
Writing application : VirtualDubMod | (build 2550/release)
Writing library : VirtualDubMod build 2550/release
ID : 0
Format : MPEG-4 Visual
Format profile : Advanced Simple@L5
Format settings, BVOP : 1
Format settings, QPel : No
Format settings, GMC : No warppoints
Format settings, Matrix : Custom
Codec ID : XVID
Codec ID/Hint : XviD
Duration : 1 h 26 min
Bit rate : 1 071 kb/s
Width : 688 pixels
Height : 288 pixels
Display aspect ratio : 2.40:1
Frame rate : 23.976 (23976/1000) FPS
Color space : YUV
Chroma subsampling : 4:2:0
Bit depth : 8 bits
Scan type : Progressive
Compression mode : Lossy
Bits/(Pixel*Frame) : 0.225
Stream size : 660 MiB (89%)
Writing library : XviD 73
ID : 1
Format : MPEG Audio
Format version : Version 1
Format profile : Layer 3
Codec ID : 55
Codec ID/Hint : MP3
Duration : 1 h 26 min
Bit rate mode : Constant
Bit rate : 128 kb/s
Channel(s) : 2 channels
Sampling rate : 48.0 kHz
Compression mode : Lossy
Stream size : 78.9 MiB (11%)
Alignment : Aligned on interleaves
Interleave, duration : 42 ms (1.00 video frame)
Interleave, preload duratio : 504 ms
Writing library : LAME3.99r
Encoding settings : -m s -V 4 -q 2 -lowpass 17 -b 128



Display posts:    

Current time is: 27-Oct 02:11

All times are UTC + 3

You cannot post new topics in this forum
You cannot reply to topics in this forum
You cannot edit your posts in this forum
You cannot delete your posts in this forum
You cannot vote in polls in this forum
You cannot attach files in this forum
You cannot download files in this forum

The site does not give electronic versions of products, and is engaged only in a collecting and cataloguing of the references sent and published at a forum by our readers. If you are the legal owner of any submitted material and do not wish that the reference to it was in our catalogue, contact us and we shall immediately remove her. Files for an exchange on tracker are given by users of a site, and the administration does not bear the responsibility for their maintenance. The request to not fill in the files protected by copyrights, and also files of the illegal maintenance!