[ Сегодня идет свободное скачивание без начисления Download ]


Статистика раздачи
Нет
 
   
 
Top  
 
 
-Дикий 3 (1-32 серии из 32) (2012) DVB- Русское название: Дикий 3
Оригинальное название: Дикий 3
Год выпуска: 2012
Страна: Россия / "Студия Анкор" по заказу НТВ
Жанр: Боевик, криминал-
Премьера (РФ): 26 ноября 2012 (НТВ)
Режиссер: Артём Мазунов
Актеры: Игорь Лифанов, Дмитрий Исаев, Мария Баева, Артём Мазунов, Юлия Майборода, Владимир Стержаков, Александр Кузнецов, Михаил Водзуми, Игорь Поселенов, Дмитрий Грачев (II), Дмитрий Митюрич, Александр Кудинов, Павел Костик, Олег Масленников-Войтов, Наталья Тетенова, Галина Анисимова (II), Олег Филипчик, Борис Покровский, Филипп Васильев, Сергей Пиоро, Андрей Алексеев, Марина Алексеенко, Алексей Анищенко, Мария Антипп, Гурам Баблишвили, Андрей Бирин, Олег Блинов

Описание фильма:
На НТВ - премьера третьего сезона самого дикого сериала с одноименным названием! Создатели обещают, что будет дико смешно, дико опасно и дико интересно! Ведь любимого зрителями героя - Дикого - ждут новое звание, новая любовь и новая служба! Всё начинается с того, что оперуполномоченный Александр Диченко он же - Дикий - начинает охоту на банду беспредельщиков, которая занимается отстрелом якобы не чистых на руку полицейских. Бандиты захватывают отделение полиции, берут заложников, тяжело ранив при этом бывшего сослуживца Дикого....-Продолжительность: серия ~ 00:45
Качество видео: DVB
Видеокодек: MPEG2
Битрейт видео: ~5139 kbps avg
Размер кадра: 720x576 (4:3), 25.000 fps
Аудиокодек: MPEG Audio Layer 2
Аудио: 48 kHz, 2 ch, ~192 kbps avg
Субтитры: нет

MediaInfo:

Format : MPEG-PS
File size : 1.74 GiB
Duration : 45mn 51s
Overall bit rate mode : Variable
Overall bit rate : 5 439 Kbps
Video
ID : 224 (0xE0)
Format : MPEG Video
Format version : Version 2
Format profile : Main@Main
Format settings, BVOP : Yes
Format settings, Matrix : Custom
Format settings, GOP : Variable
Duration : 45mn 51s
Bit rate mode : Variable
Bit rate : 5 139 Kbps
Maximum bit rate : 15.0 Mbps
Width : 720 pixels
Height : 576 pixels
Display aspect ratio : 4:3
Frame rate : 25.000 fps
Standard : PAL
Color space : YUV
Chroma subsampling : 4:2:0
Bit depth : 8 bits
Scan type : Interlaced
Scan order : Top Field First
Compression mode : Lossy
Bits/(Pixel*Frame) : 0.496
Stream size : 1.65 GiB (94%)
Audio
ID : 192 (0xC0)
Format : MPEG Audio
Format version : Version 1
Format profile : Layer 2
Duration : 45mn 51s
Bit rate mode : Constant
Bit rate : 192 Kbps
Channel(s) : 2 channels
Sampling rate : 48.0 KHz
Compression mode : Lossy
Stream size : 63.0 MiB (4%)
Скриншоты:

ДикийВремя раздачи: 24/7

[Цитировать]



Показать сообщения:    

Текущее время: 11-Дек 16:55

Часовой пояс: UTC + 3


Вы не можете начинать темы
Вы не можете отвечать на сообщения
Вы не можете редактировать свои сообщения
Вы не можете удалять свои сообщения
Вы не можете голосовать в опросах
Вы не можете прикреплять файлы к сообщениям
Вы не можете скачивать файлы

!ВНИМАНИЕ!
Сайт не предоставляет электронные версии произведений, а занимается лишь коллекционированием и каталогизацией ссылок, присылаемых и публикуемых на форуме нашими читателями. Если вы являетесь правообладателем какого-либо представленного материала и не желаете, чтобы ссылка на него находилась в нашем каталоге, свяжитесь с нами, и мы незамедлительно удалим ее. Файлы для обмена на трекере предоставлены пользователями сайта, и администрация не несет ответственности за их содержание. Просьба не заливать файлы, защищенные авторскими правами, а также файлы нелегального содержания!