[ Сегодня идет свободное скачивание без начисления Download ]


Статистика раздачи
Нет
 
   
 
Top  
 
 
Третья планета от Солнца / 3rd Rock from the Sun
Страна: США
Производство: Carsey-Werner Company, YBYL Productions
Год выпуска: 1996-2001
Сезоны: 1-6
Эпизоды: 1-139 (из 139)
Жанр: фантастика, комедия
Продолжительность: 139х ~00:21:00
Режиссеры: Терри Хьюз, Роберт Берлингер, Джеймс Берроуз
Авторы сценария: Арон Абрамс, Крис Этвуд, Кэти Баллард
В ролях: Джон Литгоу, Кристен Джонстон, Френч Стюарт, Джозеф Гордон-Левитт, Джейн Куртин, Симби Хали, Элмари Вендел, Уэйн Найт
Описание: Юмористический сериал о пришельцах, которые прибывают на Землю с тайной миссией. На своей планете они выглядели, как тюбики с желе, но на Земле они принимают человеческий облик. Командир пришельцев Дик Соломон вместе со своими подчиненными (от очень старого до самого глупого) появляются в городке Ратфорд штата Огайо и выдают себя за обычную американскую семью…

Перевод: Профессиональный (многоголосый, закадровый) | ТВ-3
Субтитры: нет-Качество: DVDRip
Формат: АVI
Видео кодек: DivX
Аудио кодек: МР3
Видео: 704x528 (4:3), 25.000 fps, DivX 5.2.1 Alpha ~1 100 kbps avg
Аудио №1: 44.1 kHz, MPEG Layer 3, 2 ch, ~128.00 kbps avg | RUS
Аудио №2: 44.1 kHz, MPEG Layer 3, 2 ch, ~128.00 kbps avg | ENG
Дата премьеры (мир): 9 января 1996-
Премия Золотой глобус, 1997 год
» Лучшая мужская роль на ТВ (комедия или мюзикл) (Джон Литгоу)
» Лучший сериал (комедия или мюзикл)

Коллекция от: kingshit
Дополнительно в раздаче: Alternate Ending + Behind the Scenes

Media Info

General
Complete name : Третья планета от Солнца (3rd Rock from the Sun)2001 - 6season6x16 - Dick Soup for the Soul.avi
Format : AVI
Format/Info : Audio Video Interleave
File size : 195 MiB
Duration : 20 min
Overall bit rate : 1 314 kb/s
Writing application : VirtualDubMod 1.5.10.2 (build 2540/release)
Writing library : VirtualDubMod build 2540/release
Video
ID : 0
Format : MPEG-4 Visual
Format settings, BVOP : No
Format settings, QPel : No
Format settings, GMC : No warppoints
Format settings, Matrix : Default (H.263)
Codec ID : DX50
Codec ID/Hint : DivX 5
Duration : 20 min
Bit rate : 1 044 kb/s
Width : 704 pixels
Height : 528 pixels
Display aspect ratio : 4:3
Frame rate : 25.000 FPS
Color space : YUV
Chroma subsampling : 4:2:0
Bit depth : 8 bits
Scan type : Progressive
Compression mode : Lossy
Bits/(Pixel*Frame) : 0.112
Stream size : 154 MiB (79%)
Writing library : DivX 5.2.1 Alpha (UTC 2004-09-08)
Audio #1
ID : 1
Format : MPEG Audio
Format version : Version 1
Format profile : Layer 3
Mode : Joint stereo
Mode extension : MS Stereo
Codec ID : 55
Codec ID/Hint : MP3
Duration : 20 min
Bit rate mode : Constant
Bit rate : 128 kb/s
Channel(s) : 2 channels
Sampling rate : 44.1 kHz
Compression mode : Lossy
Stream size : 18.9 MiB (10%)
Alignment : Split accross interleaves
Interleave, duration : 40 ms (1.00 video frame)
Interleave, preload duration : 500 ms
Audio #2
ID : 2
Format : MPEG Audio
Format version : Version 1
Format profile : Layer 3
Codec ID : 55
Codec ID/Hint : MP3
Duration : 20 min
Bit rate mode : Constant
Bit rate : 128 kb/s
Channel(s) : 2 channels
Sampling rate : 44.1 kHz
Compression mode : Lossy
Stream size : 18.9 MiB (10%)
Alignment : Split accross interleaves
Interleave, duration : 40 ms (1.00 video frame)
Interleave, preload duration : 500 ms

Скриншоты

[Цитировать]



Показать сообщения:    

Текущее время: 11-Дек 11:03

Часовой пояс: UTC + 3


Вы не можете начинать темы
Вы не можете отвечать на сообщения
Вы не можете редактировать свои сообщения
Вы не можете удалять свои сообщения
Вы не можете голосовать в опросах
Вы не можете прикреплять файлы к сообщениям
Вы не можете скачивать файлы

!ВНИМАНИЕ!
Сайт не предоставляет электронные версии произведений, а занимается лишь коллекционированием и каталогизацией ссылок, присылаемых и публикуемых на форуме нашими читателями. Если вы являетесь правообладателем какого-либо представленного материала и не желаете, чтобы ссылка на него находилась в нашем каталоге, свяжитесь с нами, и мы незамедлительно удалим ее. Файлы для обмена на трекере предоставлены пользователями сайта, и администрация не несет ответственности за их содержание. Просьба не заливать файлы, защищенные авторскими правами, а также файлы нелегального содержания!