[ Сегодня идет свободное скачивание без начисления Download ]


Статистика раздачи
Нет
 
   
 
Top  
 
 
Призраки покидают вершины (1955) Страна: СССР
Производство: Ереванская киностудия
Жанр: приключения
Год выпуска: 1955
Продолжительность: 01:31:51
Перевод: Не требуется
Cубтитры: нет
Оригинальная аудиодорожка: русский
Режиссер: Эразм Карамян, Степан Кеворков
В ролях:
Сос Сосян, Виолетта Ютуджян, Артём Карапетян, Грачья Нерсесян, Ваграм Папазян, Давид Малян, Леонид Кмит, Всеволод Тягушев, Андрей Файт, Г. Яковлев, Ольга Гулазян...
Полный список актёров
Описание:
Для восхождения на гору Камир-Сар, на неприступной вершине которой по заключению молодого ученого Арташеса Маляна находится редкое месторождение ртути и серебра, несмотря на противодействие маститого профессора Даниэль-бека, организуется экспедиция во главе с Маляном. Информация о смелом походе советских ученых доходит до Альвареца да Кортеца, хозяина одного из крупнейших европейских химических концернов. В молодости он побывал на этой вершине и, чтобы скрыть обнаруженные металлы, сбросил русского ученого Шелагина в пропасть, заставив молчать Даниэль-бека. Иностранная разведка получает задание сорвать экспедицию…- -Источник: VHS
Качество видео: VHSRip
Формат видео: AVI
Видео: 704x528 (4:3), 25 fps, XviD ~ 1497 kbps avg, 0.161 bit/pixel
Аудио: 48 kHz, Dolby Digital AC3 2.0, 192 kbps

MediaInfo

Общее
Полное имя : Prizraki.pokidayt.vercshiny.1955.VHSRip_[New-team]_by_AVP_Studio.avi
Формат : AVI
Формат/Информация : Audio Video Interleave
Размер файла : 1,09 Гбайт
Продолжительность : 1 ч. 31 м.
Общий поток : 1698 Кбит/сек
Программа кодирования : VirtualDubMod 1.5.10.3 | www.virtualdub-fr.org || (build 2550/release)
Библиотека кодирования : VirtualDubMod build 2550/release
Видео
Идентификатор : 0
Формат : MPEG-4 Visual
Профиль формата : Advanced Simple@L5
Параметр BVOP формата : 1
Параметр QPel формата : Нет
Параметр GMC формата : Без точки перехода
Параметр матрицы формата : Выборочная
Идентификатор кодека : XVID
Идентификатор кодека/Подсказка : XviD
Продолжительность : 1 ч. 31 м.
Битрейт : 1497 Кбит/сек
Ширина : 704 пикселя
Высота : 528 пикселей
Соотношение сторон : 4:3
Частота кадров : 25,000 кадров/сек
Цветовое пространство : YUV
Субдискретизация насыщенности : 4:2:0
Битовая глубина : 8 бит
Тип развёртки : Прогрессивная
Метод сжатия : С потерями
Бит/(Пиксели*Кадры) : 0.161
Размер потока : 983 Мбайт (88%)
Библиотека кодирования : XviD 1.2.1 (UTC 2008-12-04)
Аудио
Идентификатор : 1
Формат : AC-3
Формат/Информация : Audio Coding 3
Расширение режима : CM (complete main)
Параметр Endianness формата : Big
Идентификатор кодека : 2000
Продолжительность : 1 ч. 31 м.
Вид битрейта : Постоянный
Битрейт : 192 Кбит/сек
Каналы : 2 канала
Расположение каналов : Front: L R
Частота : 48,0 КГц
Частота кадров : 31,250 кадров/сек (1536 spf)
Метод сжатия : С потерями
Размер потока : 126 Мбайт (11%)
Выравнивание : Разделение по промежуткам
Продолжительность промежутка : 40 мс. (1,00 видеокадр)
Время предзагрузки промежутка : 500 мс

Скриншоты

[Цитировать]



Показать сообщения:    

Текущее время: 10-Дек 11:53

Часовой пояс: UTC + 3


Вы не можете начинать темы
Вы не можете отвечать на сообщения
Вы не можете редактировать свои сообщения
Вы не можете удалять свои сообщения
Вы не можете голосовать в опросах
Вы не можете прикреплять файлы к сообщениям
Вы не можете скачивать файлы

!ВНИМАНИЕ!
Сайт не предоставляет электронные версии произведений, а занимается лишь коллекционированием и каталогизацией ссылок, присылаемых и публикуемых на форуме нашими читателями. Если вы являетесь правообладателем какого-либо представленного материала и не желаете, чтобы ссылка на него находилась в нашем каталоге, свяжитесь с нами, и мы незамедлительно удалим ее. Файлы для обмена на трекере предоставлены пользователями сайта, и администрация не несет ответственности за их содержание. Просьба не заливать файлы, защищенные авторскими правами, а также файлы нелегального содержания!