[ Сегодня идет свободное скачивание без начисления Download ]


Статистика раздачи
Нет
 
   
 
Top  
 
 
Берега [01-07 из 07] (1977) Год выпуска: 1977
Страна: СССР
Студия: Грузия-фильм
Жанр: боевик, драма
Продолжительность: 7 серий ~ по 1 ч. 10 мин.
Перевод: не требуется
Субтитры: нет
Оригинальная аудиодорожка: русский
Режиссер: Гизо Габескирия, Григорий Лордкипанидзе
В ролях:
Отар Мегвинетухуцеси, Тенгиз Арчвадзе, Юри Ярвет, Григорий Цитайшвили, Карло Саканделидзе, Акакий Васадзе, Владимир Солодников, Софико Чиаурели, Джемал Сихарулидзе, Георгий (Гоги) Харабадзе, Кетеван Кикнадзе, Григол Талаквадзе, Гурам Пирцхалава, Имеда Кахиани, Ипполит Хвичия, Руслан Микаберидзе, Малхаз Горгиладзе, Георгий Геловани, Гиви Берикашвили, Зураб Капианидзе, Гурам Сагарадзе, Давид (Додо) Абашидзе, Василий Чхаидзе, Сесилия Такаишвили, Зураб Лаперадзе, Ия Хобуа, Отар Коберидзе, Лия Элиава, Георгий Гегечкори, Иванэ (Вано) Сакварелидзе, Лео (Леван) Антадзе, Л. Амираджиби, Бичико Андроникашвили, Ефим Байковский, Малхаз Бебуришвили, Михаил Вашадзе, Гуранда Габуния, Нато Гагнидзе, Иосиф (Сосо) Гогичайшвили, Владимир Гуляев, Бухути Закариадзе, Отар Зауташвили, Лиа Капанадзе, Зинаида Кверенчхиладзе, Мамука Купарадзе, Нодар Мгалоблишвили, Заза Микашавидзе, Виктор Нинидзе, Леван Пилпани, Важа Пирцхалаишвили, Елена Сакварелидзе, Анзор Урдия, Бесарион (Бесо) Хидешели, Борис Ципурия, Варлам Цуладзе, Автандил Верулеишвили, Иза Гигошвили, Бондо Гогинава, Александр Иоселиани, Давид Окросцваридзе, Марлен Эгутия, Владимир Брегвадзе, Татули Долидзе, Георгий Сагарадзе, Тариэль Сакварелидзе, Темур (Теимураз) Цикоридзе, Василий Шавгулидзе, Флора (Феодосия) Шедания, Гигла Эбралидзе, Ираклий Кокрашвили...
Полный список актёров
Описание:
Телесериал по роману Ч. Амирэджиба «Дата Туташхиа».
Много лет человек по имени Дата Туташхиа скитался по миру. Он пытался делать добро, но убедившись, что оно не дает добрых всходов, разочаровался в людях. И тогда он начал борьбу со злом, но и его искоренить не смог. Так и жил Дата без семьи и дома, скрываясь от властей, теряя близких и друзей, в концов концов приняв смерть от собственного сына.- -Исходник: DVB
Качество видео: SATRip
Формат видео: AVI
Видео: 704х528 (4:3), 25 fps, XviD ~ 1800 kbps avg, 0.194 bit/pixel
Аудио: 48 kHz, Dolby Digital AC3 2.0, 192 kbps

MediaInfo

Общее
Полное имя : Berega.1977.SATRip_[New-team]_by_AVP_Studio5.avi
Формат : AVI
Формат/Информация : Audio Video Interleave
Размер файла : 904 Мбайт
Продолжительность : 1 ч. 3 м.
Общий поток : 2002 Кбит/сек
Программа кодирования : VirtualDubMod 1.5.10.3 | www.virtualdub-fr.org || (build 2550/release)
Библиотека кодирования : VirtualDubMod build 2550/release
Видео
Идентификатор : 0
Формат : MPEG-4 Visual
Профиль формата : Advanced [email protected]
Параметр BVOP формата : 1
Параметр QPel формата : Нет
Параметр GMC формата : Без точки перехода
Параметр матрицы формата : Выборочная
Идентификатор кодека : XVID
Идентификатор кодека/Подсказка : XviD
Продолжительность : 1 ч. 3 м.
Битрейт : 1800 Кбит/сек
Ширина : 704 пикселя
Высота : 528 пикселей
Соотношение сторон : 4:3
Частота кадров : 25,000 кадров/сек
Цветовое пространство : YUV
Субдискретизация насыщенности : 4:2:0
Битовая глубина : 8 бит
Тип развёртки : Прогрессивная
Метод сжатия : С потерями
Бит/(Пиксели*Кадры) : 0.194
Размер потока : 813 Мбайт (90%)
Библиотека кодирования : XviD 73
Аудио
Идентификатор : 1
Формат : AC-3
Формат/Информация : Audio Coding 3
Расширение режима : CM (complete main)
Параметр Endianness формата : Big
Идентификатор кодека : 2000
Продолжительность : 1 ч. 3 м.
Вид битрейта : Постоянный
Битрейт : 192 Кбит/сек
Каналы : 2 канала
Расположение каналов : Front: L R
Частота : 48,0 КГц
Метод сжатия : С потерями
Размер потока : 86,7 Мбайт (10%)
Выравнивание : Разделение по промежуткам
Продолжительность промежутка : 40 мс. (1,00 видеокадр)
Время предзагрузки промежутка : 500 мс

Скриншоты

[Цитировать]



Показать сообщения:    

Текущее время: 06-Дек 17:10

Часовой пояс: UTC + 3


Вы не можете начинать темы
Вы не можете отвечать на сообщения
Вы не можете редактировать свои сообщения
Вы не можете удалять свои сообщения
Вы не можете голосовать в опросах
Вы не можете прикреплять файлы к сообщениям
Вы не можете скачивать файлы

!ВНИМАНИЕ!
Сайт не предоставляет электронные версии произведений, а занимается лишь коллекционированием и каталогизацией ссылок, присылаемых и публикуемых на форуме нашими читателями. Если вы являетесь правообладателем какого-либо представленного материала и не желаете, чтобы ссылка на него находилась в нашем каталоге, свяжитесь с нами, и мы незамедлительно удалим ее. Файлы для обмена на трекере предоставлены пользователями сайта, и администрация не несет ответственности за их содержание. Просьба не заливать файлы, защищенные авторскими правами, а также файлы нелегального содержания!