[ Сегодня идет свободное скачивание без начисления Download ]


Статистика раздачи
Нет
 
   
 
Top  
 
 
Резорт / The Rezort Информация о фильме
Название: Резорт
Оригинальное название: The Rezort
Год выхода: 2015
Жанр: Ужасы
Режиссер: Стив Баркер
В ролях: Дугрей Скотт, Джессика Де Гау, Мартин МакКанн, Ричард Лэйн, Джасса Ахлувалиа, Сэм Дуглас, Клэр Гуз, Шэйн Заза, Элен Риз
О фильме:
Предприимчивые владельцы роскошного заповедника предлагают людям необычное развлечение – охоту за зомби. Постояльцы должны проявить храбрость, сообразительность и физическую силу, чтобы отследить и уничтожить очередную жертву. Новый вид спорта привлекает немалое количество рискованных отдыхающих, готовых в строго контролируемой среде выплеснуть свои отрицательные эмоции и жестоко отомстить существам, нарушившим их спокойную жизнь. Психологи утверждают, что подобные убийства благотворно сказываются на состоянии отдыхающих, успокаивая нервы и повышая уверенность в собственных силах. Но не зашли ли люди далеко в своей жестокости?

Страна: Великобритания, Испания, Бельгия
Студия: Black Camel Pictures, Bulletproof Cupid, Captain Starlight Company
Продолжительность: 01:27:54
Перевод: Любительский многоголосый (закадровый) | Студия Пиратского Дубляжа
Файл
Кодек: MPEG-4
Качество: BDRemux 1080p
Видео: 1920x1080, 32.3 Mbit/s, 24.000 fps
Звук:
Аудио #01: 48 kHz, AC3, 5.1, 384 Kbps | Любительский многоголосый (закадровый) | СПД |
Аудио #02: 48 kHz, DTS-HD MA, 5.1, 2388 kbps | Оригинал |

MI

General
Unique ID : 216138469763557996233218165375228774526 (0xA29AC14E927DF439B0D8B1344251087E)
Complete name : G:VideoThe.Rezort.2015.MVO.BDREMUX.1080p.ExKinoRay.mkv
Format : Matroska
Format version : Version 4 / Version 2
File size : 22.2 GiB
Duration : 1 h 30 min
Overall bit rate : 35.1 Mb/s
Encoded date : UTC 2016-09-08 13:02:56
Writing application : mkvmerge v8.3.0 ('Over the Horizon') 64bit
Writing library : libebml v1.3.1 + libmatroska v1.4.2
Video
ID : 1
Format : AVC
Format/Info : Advanced Video Codec
Format profile : High@L4.1
Format settings, CABAC : Yes
Format settings, ReFrames : 4 frames
Codec ID : V_MPEG4/ISO/AVC
Duration : 1 h 30 min
Bit rate mode : Constant
Bit rate : 32.3 Mb/s
Nominal bit rate : 35.0 Mb/s
Width : 1 920 pixels
Height : 1 080 pixels
Display aspect ratio : 16:9
Frame rate mode : Constant
Frame rate : 24.000 FPS
Standard : NTSC
Color space : YUV
Chroma subsampling : 4:2:0
Bit depth : 8 bits
Scan type : Progressive
Bits/(Pixel*Frame) : 0.649
Stream size : 20.5 GiB (92%)
Language : English
Default : Yes
Forced : No
Color range : Limited
Color primaries : BT.709
Transfer characteristics : BT.709
Matrix coefficients : BT.709
Audio #1
ID : 2
Format : AC-3
Format/Info : Audio Coding 3
Mode extension : CM (complete main)
Format settings, Endianness : Big
Codec ID : A_AC3
Duration : 1 h 30 min
Bit rate mode : Constant
Bit rate : 384 kb/s
Channel(s) : 6 channels
Channel positions : Front: L C R, Side: L R, LFE
Sampling rate : 48.0 kHz
Frame rate : 31.250 FPS (1536 spf)
Compression mode : Lossy
Delay relative to video : 24 s 0 ms
Stream size : 248 MiB (1%)
Language : Russian
Default : Yes
Forced : No
Audio #2
ID : 3
Format : DTS
Format/Info : Digital Theater Systems
Format profile : MA / Core
Mode : 16
Format settings, Endianness : Big
Codec ID : A_DTS
Duration : 1 h 30 min
Bit rate mode : Variable / Constant
Bit rate : 2 388 kb/s / 1 509 kb/s
Channel(s) : 6 channels
Channel positions : Front: L C R, Side: L R, LFE
Sampling rate : 48.0 kHz
Frame rate : 93.750 FPS (512 spf)
Bit depth : 16 bits
Compression mode : Lossless / Lossy
Stream size : 1.51 GiB (7%)
Language : English
Default : No
Forced : No
Menu
00:00:00.000 : en:Chapter 01
00:05:23.281 : en:Chapter 02
00:10:12.987 : en:Chapter 03
00:15:53.202 : en:Chapter 04
00:20:13.546 : en:Chapter 05
00:23:41.462 : en:Chapter 06
00:28:51.229 : en:Chapter 07
00:33:30.383 : en:Chapter 08
00:39:37.208 : en:Chapter 09
00:45:05.286 : en:Chapter 10
00:49:43.105 : en:Chapter 11
00:53:26.954 : en:Chapter 12
00:58:40.392 : en:Chapter 13
01:02:42.467 : en:Chapter 14
01:08:22.598 : en:Chapter 15
01:12:51.075 : en:Chapter 16
01:17:35.401 : en:Chapter 17
01:20:58.270 : en:Chapter 18
01:26:11.500 : en:Chapter 19
01:31:42.247 : en:Chapter 20

Скриншоты

[Цитировать]



Показать сообщения:    

Текущее время: 08-Дек 23:10

Часовой пояс: UTC + 3


Вы не можете начинать темы
Вы не можете отвечать на сообщения
Вы не можете редактировать свои сообщения
Вы не можете удалять свои сообщения
Вы не можете голосовать в опросах
Вы не можете прикреплять файлы к сообщениям
Вы не можете скачивать файлы

!ВНИМАНИЕ!
Сайт не предоставляет электронные версии произведений, а занимается лишь коллекционированием и каталогизацией ссылок, присылаемых и публикуемых на форуме нашими читателями. Если вы являетесь правообладателем какого-либо представленного материала и не желаете, чтобы ссылка на него находилась в нашем каталоге, свяжитесь с нами, и мы незамедлительно удалим ее. Файлы для обмена на трекере предоставлены пользователями сайта, и администрация не несет ответственности за их содержание. Просьба не заливать файлы, защищенные авторскими правами, а также файлы нелегального содержания!