[ Сегодня идет свободное скачивание без начисления Download ]


Статистика раздачи
Нет
 
   
 
Top  
 
 
Родные поля
Страна: СССР
Производство: Мосфильм
Жанр: драма
Год выпуска: 1944
Продолжительность: 01:29:14
Перевод: Не требуется
Cубтитры: нет
Оригинальная аудиодорожка: русский
Режиссер: Борис Бабочкин, Анатолий Босулаев
В ролях:
Борис Бабочкин, Василий Ванин, Николай Сергеев, Ольга Викландт, Нина Никитина, Анастасия Зуева, Елизавета Кузюрина, Нина Зорская, Владимир Балихин, М. Томкевич, Виктор Кольцов (Кутаков), Марина (Мария) Гаврилко, Мария Виноградова, Виктор Ключарев, Анатолий Елисеев, Мария Волкова, Владимир Колчин, Анна Кожевникова, Вера Орлова, Алексей Темерин, Зоя Толбузина (Земнухова), Владимир Уральский, Галина Фролова, Н. Карпов, Александр Лукьянов, А. Скворцова, Елена Тяпкина...
Полный список актёров
Описание:
Сказ о трудовом и героическом подвиге русского народа в годы Великой Отечественной войны. Ноябрь 1941 года. Один за другим уходят мужчины, в деревне Быковка остаются лишь старики, женщины и дети. Председатель колхоза Иван Выборнов тоже рвется на фронт, но, подчиняясь партийной дисциплине, остается в деревне и продолжает умело руководить колхозом, мобилизуя односельчан на отправку хлеба для фронта и голодающих городов.
Первая режиссерская работа известного актера Бориса Бабочкина и театрального художника Анатолия Босулаева.- -Источник: DVB
Качество видео: SATRip
Формат видео: AVI
Видео: 704x512 (1,375:1), 25 fps, XviD ~ 1546 kbps avg, 0.172 bit/pixel
Аудио: 48 kHz, Dolby Digital AC3 2.0, 192 kbps

MediaInfo

Общее
Полное имя : Rodnye.polya.1944.DVDRip_[New-team]_by_AVP_Studio.avi
Формат : AVI
Формат/Информация : Audio Video Interleave
Размер файла : 1,09 Гбайт
Продолжительность : 1 ч. 29 м.
Общий поток : 1748 Кбит/сек
Программа кодирования : VirtualDubModRus 1.5.10.2 (build 2542/release)
Библиотека кодирования : VirtualDubMod build 2542/release
Видео
Идентификатор : 0
Формат : MPEG-4 Visual
Профиль формата : Advanced Simple@L5
Параметр BVOP формата : 1
Параметр QPel формата : Нет
Параметр GMC формата : Без точки перехода
Параметр матрицы формата : Выборочная
Идентификатор кодека : XVID
Идентификатор кодека/Подсказка : XviD
Продолжительность : 1 ч. 29 м.
Битрейт : 1546 Кбит/сек
Ширина : 704 пикселя
Высота : 512 пикселей
Соотношение сторон : 1,375
Частота кадров : 25,000 кадров/сек
Цветовое пространство : YUV
Субдискретизация насыщенности : 4:2:0
Битовая глубина : 8 бит
Тип развёртки : Прогрессивная
Метод сжатия : С потерями
Бит/(Пиксели*Кадры) : 0.172
Размер потока : 987 Мбайт (88%)
Библиотека кодирования : XviD 73
Аудио
Идентификатор : 1
Формат : AC-3
Формат/Информация : Audio Coding 3
Расширение режима : CM (complete main)
Параметр Endianness формата : Big
Идентификатор кодека : 2000
Продолжительность : 1 ч. 29 м.
Вид битрейта : Постоянный
Битрейт : 192 Кбит/сек
Каналы : 2 канала
Расположение каналов : Front: L R
Частота : 48,0 КГц
Битовая глубина : 16 бит
Метод сжатия : С потерями
Размер потока : 123 Мбайт (11%)
Выравнивание : Разделение по промежуткам
Продолжительность промежутка : 40 мс. (1,00 видеокадр)
Время предзагрузки промежутка : 500 мс

Скриншоты

[Цитировать]



Показать сообщения:    

Текущее время: 11-Дек 13:01

Часовой пояс: UTC + 3


Вы не можете начинать темы
Вы не можете отвечать на сообщения
Вы не можете редактировать свои сообщения
Вы не можете удалять свои сообщения
Вы не можете голосовать в опросах
Вы не можете прикреплять файлы к сообщениям
Вы не можете скачивать файлы

!ВНИМАНИЕ!
Сайт не предоставляет электронные версии произведений, а занимается лишь коллекционированием и каталогизацией ссылок, присылаемых и публикуемых на форуме нашими читателями. Если вы являетесь правообладателем какого-либо представленного материала и не желаете, чтобы ссылка на него находилась в нашем каталоге, свяжитесь с нами, и мы незамедлительно удалим ее. Файлы для обмена на трекере предоставлены пользователями сайта, и администрация не несет ответственности за их содержание. Просьба не заливать файлы, защищенные авторскими правами, а также файлы нелегального содержания!