[ Сегодня идет свободное скачивание без начисления Download ]


Статистика раздачи
Нет
 
   
 
Top  
 
 
Люди Икс: Апокалипсис / X-Men: Apocalypse
Информация о фильме
Название: Люди Икс: Апокалипсис
Оригинальное название: X-Men: Apocalypse
Год выхода: 2016
Режиссер: Брайан Сингер
В ролях: Майкл Фассбендер, Дженнифер Лоуренс, Джеймс МакЭвой, Эван Питерс, Николас Хоулт, Ченнинг Татум, Оскар Айзек, Александра Шипп, Тай Шеридан, Софи Тернер, Лана Кондор, Оливия Манн, Роуз Бирн, Хью Джекмен, Коди Смит-МакФи, Брендан Педдер
О фильме:
События «Дней Минувшего Будущего» оказали колоссальное влияние на мир, где мутанты и люди борются за свое место под Солнцем. В это нелегкое время Людям Икс предстоит столкнуться со своим самым опасным противником — древним мутантом Апокалипсисом, существом, схватка с которым может стать последней не только для мутантов, но и в принципе для всего человечества. В поисках способа победы над неуязвимым и бессмертным монстром Людям Икс предстоит узнать больше о происхождении своего вида. Но Апокалипсис неимоверно силен, и вероятность победы все уменьшается, ведь он твердо убежден, что только сильнейшие имеют право на выживание…
Страна: США
Продолжительность: 02:24:14
Перевод: Дублированный (iTunes)
Файл
Кодек: MKV
Качество: BDRip 1080p
Видео: 1920x800 at 23.976 fps, MPEG-4 AVC, ~5150 kbps avg
Aудио#1: Russian: 48 kHz, AC3, 3/2 (L,C,R,l,r) + LFE ch, ~384.00 kbps avg |Дубляж, iTunes Russia|
Aудио#2: English: 48 kHz, DTS, (Front: L C R, Side: L R, Back: C, LFE / Front: L C R, Side: L R, LFE), ~1509.00 kbps avg
Субтитры: Russian (Forced, iTunes), Russian (iTunes), English (Forced, iTunes), English (iTunes)

Скриншоты

МИ

Общее
Уникальный идентификатор : 220460288903249071915725270889243130280 (0xA5DB1B711CAF045EA7BE7D3FF110B9A8)
Полное имя : X:ATorrentX-Men.Apocalypse.2016.BDRip.1080p.mkv
Формат : Matroska
Версия формата : Version 2
Размер файла : 7,24 Гбайт
Продолжительность : 2 ч. 23 м.
Общий поток : 7200 Кбит/сек
Название фильма : X-Men.Apocalypse.2016.1080p
Дата кодирования : UTC 2016-09-08 19:28:01
Программа кодирования : mkvmerge v4.0.0 ('The Stars were mine') сборка от Jun 6 2010 16:18:42
Библиотека кодирования : libebml v1.0.0 + libmatroska v1.0.0
Видео
Идентификатор : 1
Формат : AVC
Формат/Информация : Advanced Video Codec
Профиль формата : High@L4.1
Параметр CABAC формата : Да
Параметр ReFrames формата : 5 кадров
Идентификатор кодека : V_MPEG4/ISO/AVC
Продолжительность : 2 ч. 23 м.
Битрейт : 5164 Кбит/сек
Ширина : 1920 пикселей
Высота : 800 пикселей
Соотношение сторон : 2,40:1
Режим частоты кадров : Постоянный
Частота кадров : 23,976 (24000/1001) кадра/сек
Цветовое пространство : YUV
Субдискретизация насыщенности : 4:2:0
Битовая глубина : 8 бит
Тип развёртки : Прогрессивная
Бит/(Пиксели*Кадры) : 0.140
Размер потока : 5,19 Гбайт (72%)
Библиотека кодирования : x264 core 148 r2705 3f5ed56
Настройки программы : cabac=1 / ref=5 / deblock=1:-1:-1 / analyse=0x3:0x133 / me=umh / subme=7 / psy=1 / psy_rd=1.00:0.15 / mixed_ref=1 / me_range=16 / chroma_me=1 / trellis=1 / 8x8dct=1 / cqm=0 / deadzone=21,11 / fast_pskip=0 / chroma_qp_offset=-3 / threads=24 / lookahead_threads=4 / sliced_threads=0 / nr=0 / decimate=1 / interlaced=0 / bluray_compat=0 / constrained_intra=0 / bframes=3 / b_pyramid=2 / b_adapt=1 / b_bias=0 / direct=1 / weightb=1 / open_gop=0 / weightp=2 / keyint=250 / keyint_min=23 / scenecut=40 / intra_refresh=0 / rc_lookahead=40 / rc=crf / mbtree=1 / crf=20.0 / qcomp=0.60 / qpmin=0 / qpmax=69 / qpstep=4 / ip_ratio=1.40 / aq=1:1.00
Язык : English
Default : Нет
Forced : Нет
Аудио #1
Идентификатор : 2
Формат : AC-3
Формат/Информация : Audio Coding 3
Расширение режима : CM (complete main)
Параметр Endianness формата : Big
Идентификатор кодека : A_AC3
Продолжительность : 2 ч. 23 м.
Вид битрейта : Постоянный
Битрейт : 384 Кбит/сек
Каналы : 6 каналов
Расположение каналов : Front: L C R, Side: L R, LFE
Частота : 48,0 КГц
Частота кадров : 31,250 кадров/сек (1536 spf)
Метод сжатия : С потерями
Размер потока : 395 Мбайт (5%)
Заголовок : DUB
Язык : Russian
Default : Да
Forced : Да
Аудио #2
Идентификатор : 3
Формат : DTS
Формат/Информация : Digital Theater Systems
Профиль формата : ES Matrix / Core
Режим : 16
Параметр Endianness формата : Big
Идентификатор кодека : A_DTS
Продолжительность : 2 ч. 23 м.
Вид битрейта : Постоянный
Битрейт : 1509 Кбит/сек
Каналы : 7 каналов / 6 каналов
Расположение каналов : Front: L C R, Side: L R, Back: C, LFE / Front: L C R, Side: L R, LFE
Частота : 48,0 КГц
Частота кадров : 93,750 кадра/сек (512 spf)
Битовая глубина : 24 бит
Метод сжатия : С потерями
Задержка видео : 11 мс.
Размер потока : 1,52 Гбайт (21%)
Язык : English
Default : Нет
Forced : Нет
Текст #1
Идентификатор : 4
Формат : UTF-8
Идентификатор кодека : S_TEXT/UTF8
Идентификатор кодека/Информация : UTF-8 Plain Text
Заголовок : Forced
Язык : Russian
Default : Да
Forced : Да
Текст #2
Идентификатор : 5
Формат : UTF-8
Идентификатор кодека : S_TEXT/UTF8
Идентификатор кодека/Информация : UTF-8 Plain Text
Заголовок : Ful
Язык : Russian
Default : Нет
Forced : Нет
Текст #3
Идентификатор : 6
Формат : UTF-8
Идентификатор кодека : S_TEXT/UTF8
Идентификатор кодека/Информация : UTF-8 Plain Text
Заголовок : Forced
Язык : English
Default : Нет
Forced : Нет
Текст #4
Идентификатор : 7
Формат : UTF-8
Идентификатор кодека : S_TEXT/UTF8
Идентификатор кодека/Информация : UTF-8 Plain Text
Заголовок : Full
Язык : English
Default : Нет
Forced : Нет
Меню
00:00:00.000 : en:00:00:00.000
00:08:18.790 : en:00:08:18.790
00:14:13.186 : en:00:14:13.186
00:18:07.086 : en:00:18:07.086
00:24:55.494 : en:00:24:55.494
00:30:45.343 : en:00:30:45.343
00:36:35.235 : en:00:36:35.235
00:41:00.083 : en:00:41:00.083
00:45:56.504 : en:00:45:56.504
00:49:24.295 : en:00:49:24.295
00:55:22.611 : en:00:55:22.611
00:59:36.823 : en:00:59:36.823
01:04:43.671 : en:01:04:43.671
01:12:35.851 : en:01:12:35.851
01:17:32.898 : en:01:17:32.898
01:22:18.517 : en:01:22:18.517
01:27:45.594 : en:01:27:45.594
01:34:05.807 : en:01:34:05.807
01:36:46.634 : en:01:36:46.634
01:39:50.902 : en:01:39:50.902
01:43:34.375 : en:01:43:34.375
01:49:57.382 : en:01:49:57.382
01:55:08.360 : en:01:55:08.360
01:57:21.660 : en:01:57:21.660
02:03:50.548 : en:02:03:50.548
02:07:56.711 : en:02:07:56.711
02:10:59.101 : en:02:10:59.101
02:12:54.091 : en:02:12:54.091

[Цитировать]

Топик был перенесен из форума Новинки кинопроката в форум Новинки кинопроката (HD Video)
Viktor1952



Показать сообщения:    

Текущее время: 10-Дек 00:23

Часовой пояс: UTC + 3


Вы не можете начинать темы
Вы не можете отвечать на сообщения
Вы не можете редактировать свои сообщения
Вы не можете удалять свои сообщения
Вы не можете голосовать в опросах
Вы не можете прикреплять файлы к сообщениям
Вы не можете скачивать файлы

!ВНИМАНИЕ!
Сайт не предоставляет электронные версии произведений, а занимается лишь коллекционированием и каталогизацией ссылок, присылаемых и публикуемых на форуме нашими читателями. Если вы являетесь правообладателем какого-либо представленного материала и не желаете, чтобы ссылка на него находилась в нашем каталоге, свяжитесь с нами, и мы незамедлительно удалим ее. Файлы для обмена на трекере предоставлены пользователями сайта, и администрация не несет ответственности за их содержание. Просьба не заливать файлы, защищенные авторскими правами, а также файлы нелегального содержания!