[ Сегодня идет свободное скачивание без начисления Download ]


Статистика раздачи
Нет
 
   
 
Top  
 
 
Стрелки Юбочного форта / The Guns of Fort Petticoat (1957) BDRip 1080p Информация о фильме
Название: Стрелки Юбочного форта
Оригинальное название: The Guns of Fort Petticoat
Год выхода: 1957
Жанр: Вестерн, военный
Режиссер: Джордж Маршалл
В ролях: Оди Мёрфи, Кэтрин Грант, Хоуп Эмерсон, Джефф Доннел, Жанетт Нолан, Шон МакКлори, Эрнестин Вэйд, Пегги Мали, Изобел Элсом, Патриция Тирнан, Ким Чарни, Рэй Тил, Нестор Пайва, Джеймс Гриффит
О фильме:
Во время Гражданской войны техасец Фрэнк Хьюит по зову совести вступает в армию Севера. Под надуманным предлогом командир его подразделения приказывает уничтожить дружественную индейскую деревню, и Фрэнк с ужасом понимает, что теперь озлобленные индейцы неминуемо нападут на Техас. На его родные края, где почти все мужчины ушли на войну, и беззащитные женщины и дети остались одни. И Фрэнк не колеблется ни минуты: он любой ценой должен защитить своих земляков, пусть все они и считают его предателем.
Страна: США
Студия: Columbia Pictures Corporation
Продолжительность: 01:21:21
Перевод: Любительский одноголосый закадровый
Файл
Кодек: h.264
Качество: BDRip 1080p
Видео: MPEG-4 AVC, 18500 Кбит/с, 1920x1080, 23.976 кадр/с
Звук:
Русский (AC3, 2 ch, 192 Кбит/с) / Любительский одноголосый (funny77)
Английский (AC3, 2 ch, 640 Кбит/с)
Субтитры: Английские
Семпл

О релизе

Автор релиза - Silverok, За BDRemux спасибо flaSI-I
Субтитры: S_TEXT/UTF8 (SRT) - Английские
Сохранены оригинальные главы как на Blu-ray

MI

General
Unique ID : 225195006056166918633834185668766110888 (0xA96AFB05426EEDC0B29E2DCC0D8A94A8)
Complete name : D:uTorrentStrelki.jubocnogo.forta.1957.BDRip.1080p.MediaClub.mkv
Format : Matroska
Format version : Version 4 / Version 2
File size : 11.0 GiB
Duration : 1 h 21 min
Overall bit rate : 19.3 Mb/s
Encoded date : UTC 2016-09-08 07:43:28
Writing application : mkvmerge v9.3.1 ('Mask Machine') 64bit
Writing library : libebml v1.3.4 + libmatroska v1.4.5
Video
ID : 1
Format : AVC
Format/Info : Advanced Video Codec
Format profile : High@L4.1
Format settings, CABAC : Yes
Format settings, ReFrames : 4 frames
Codec ID : V_MPEG4/ISO/AVC
Duration : 1 h 21 min
Bit rate : 18.5 Mb/s
Width : 1 920 pixels
Height : 1 080 pixels
Display aspect ratio : 16:9
Frame rate mode : Constant
Frame rate : 23.976 (24000/1001) FPS
Color space : YUV
Chroma subsampling : 4:2:0
Bit depth : 8 bits
Scan type : Progressive
Bits/(Pixel*Frame) : 0.372
Stream size : 10.3 GiB (94%)
Title : BDRip by Silverok
Writing library : x264 core 148 r2638 7599210
Encoding settings : cabac=1 / ref=4 / deblock=1:-3:-3 / analyse=0x3:0x113 / me=umh / subme=11 / psy=1 / psy_rd=1.00:0.18 / mixed_ref=1 / me_range=48 / chroma_me=1 / trellis=2 / 8x8dct=1 / cqm=0 / deadzone=21,11 / fast_pskip=0 / chroma_qp_offset=-3 / threads=12 / lookahead_threads=3 / sliced_threads=0 / nr=0 / decimate=0 / interlaced=0 / bluray_compat=0 / constrained_intra=0 / bframes=10 / b_pyramid=2 / b_adapt=2 / b_bias=0 / direct=3 / weightb=1 / open_gop=0 / weightp=2 / keyint=240 / keyint_min=24 / scenecut=40 / intra_refresh=0 / rc=2pass / mbtree=0 / bitrate=18500 / ratetol=1.0 / qcomp=0.60 / qpmin=0 / qpmax=69 / qpstep=4 / cplxblur=20.0 / qblur=0.5 / ip_ratio=1.40 / pb_ratio=1.30 / aq=1:1.00
Default : Yes
Forced : No
Audio #1
ID : 2
Format : AC-3
Format/Info : Audio Coding 3
Mode extension : CM (complete main)
Format settings, Endianness : Big
Codec ID : A_AC3
Duration : 1 h 21 min
Bit rate mode : Constant
Bit rate : 192 kb/s
Channel(s) : 2 channels
Channel positions : Front: L R
Sampling rate : 48.0 kHz
Frame rate : 31.250 FPS (1536 spf)
Compression mode : Lossy
Stream size : 112 MiB (1%)
Title : Любительский одноголосый закадровый (funny77)
Language : Russian
Default : Yes
Forced : No
Audio #2
ID : 3
Format : AC-3
Format/Info : Audio Coding 3
Mode extension : CM (complete main)
Format settings, Endianness : Big
Codec ID : A_AC3
Duration : 1 h 21 min
Bit rate mode : Constant
Bit rate : 640 kb/s
Channel(s) : 2 channels
Channel positions : Front: L R
Sampling rate : 48.0 kHz
Frame rate : 31.250 FPS (1536 spf)
Compression mode : Lossy
Stream size : 372 MiB (3%)
Language : English
Default : No
Forced : No
Text
ID : 4
Format : UTF-8
Codec ID : S_TEXT/UTF8
Codec ID/Info : UTF-8 Plain Text
Language : English
Default : Yes
Forced : No
Menu
00:00:00.000 : en:00:00:00.000
00:01:13.156 : en:00:01:13.156
00:07:51.179 : en:00:07:51.179
00:11:19.929 : en:00:11:19.929
00:22:32.101 : en:00:22:32.101
00:28:59.488 : en:00:28:59.488
00:40:04.986 : en:00:40:04.986
00:47:57.583 : en:00:47:57.583
00:54:06.994 : en:00:54:06.994
01:01:37.444 : en:01:01:37.444
01:08:34.527 : en:01:08:34.527

Скриншоты

[Цитировать]



Показать сообщения:    

Текущее время: 10-Дек 08:07

Часовой пояс: UTC + 3


Вы не можете начинать темы
Вы не можете отвечать на сообщения
Вы не можете редактировать свои сообщения
Вы не можете удалять свои сообщения
Вы не можете голосовать в опросах
Вы не можете прикреплять файлы к сообщениям
Вы не можете скачивать файлы

!ВНИМАНИЕ!
Сайт не предоставляет электронные версии произведений, а занимается лишь коллекционированием и каталогизацией ссылок, присылаемых и публикуемых на форуме нашими читателями. Если вы являетесь правообладателем какого-либо представленного материала и не желаете, чтобы ссылка на него находилась в нашем каталоге, свяжитесь с нами, и мы незамедлительно удалим ее. Файлы для обмена на трекере предоставлены пользователями сайта, и администрация не несет ответственности за их содержание. Просьба не заливать файлы, защищенные авторскими правами, а также файлы нелегального содержания!