[ Сегодня идет свободное скачивание без начисления Download ]


Статистика раздачи
Нет
 
   
 
Top  
 
 
- Tarkan - Tarkan (1999) - Год: 1999
Жанр: Pop, Folk, World, & Country
Издание: Universal – 547 513-2
Продолжительность: 01:05:30
Источник (релизер): blandrew®
Кодек: FLAC
Битрейт: Lossless
Тип рипа: tracks + .cue
Треклист:
01. Simarik (3:10)
02. Olurum Sana (4:05)
03. Bu Gece (Kir Zincirlerini) (remix 99) (3:49)
04. Sikidim (Hepsi Senin mi?) (3:16)
05. Salina Salina Sinsice (3:55)
06. Ikimizin Yerine (4:40)
07. Inci Tanem (5:38)
08. Don Bebegim (4:45)
09. Basina Bela Olurum (4:12)
10. Gul Doktum Yollarina (4:08)
11. Unut Beni (5:27)
12. Beni Anlama (5:22)
13. Delikanli Caglarim (3:42)
14. Simarik (long version) (3:53)
15. Bu Gece (Kir Zincirlerini) (5:21)

Дополнительная информация:

https://www.discogs.com/Tarkan-Tarkan/release/2341752

Отчёт ЕАС:

Exact Audio Copy V1.1 from 23. June 2015
EAC extraction logfile from 9. September 2016, 15:22
Tarkan / Tarkan
Used drive  : ASUS    BW-12D1S-U   Adapter: 1  ID: 1
Read mode               : Secure
Utilize accurate stream : Yes
Defeat audio cache      : Yes
Make use of C2 pointers : No
Read offset correction                      : 667
Overread into Lead-In and Lead-Out          : No
Fill up missing offset samples with silence : Yes
Delete leading and trailing silent blocks   : No
Null samples used in CRC calculations       : Yes
Used interface                              : Native Win32 interface for Win NT & 2000
Gap handling                                : Appended to previous track
Used output format              : User Defined Encoder
Selected bitrate                : 768 kBit/s
Quality                         : High
Add ID3 tag                     : No
Command line compressor         : D:\Program Files (x86)\Exact Audio Copy\Flac\flac.exe
Additional command line options : -8 -V -T "TITLE=%title%" -T "ARTIST=%artist%" -T "ALBUMARTIST=%albumartist%" -T "ALBUM=%albumtitle%" -T "DATE=%year%" -T "TRACKNUMBER=%tracknr%" -T "TRACKTOTAL=%numtracks%" -T "GENRE=%genre%" -T "COMMENT=%comment%" -T "PERFORMER=%albuminterpret%" -T "COMPOSER=%composer%" %source% -o %dest%
TOC of the extracted CD
     Track |   Start  |  Length  | Start sector | End sector
    ---------------------------------------------------------
        1  |  0:00.00 |  3:10.20 |         0    |    14269
        2  |  3:10.20 |  4:05.67 |     14270    |    32711
        3  |  7:16.12 |  3:49.38 |     32712    |    49924
        4  | 11:05.50 |  3:16.07 |     49925    |    64631
        5  | 14:21.57 |  3:55.48 |     64632    |    82304
        6  | 18:17.30 |  4:40.37 |     82305    |   103341
        7  | 22:57.67 |  5:38.48 |    103342    |   128739
        8  | 28:36.40 |  4:45.05 |    128740    |   150119
        9  | 33:21.45 |  4:12.42 |    150120    |   169061
       10  | 37:34.12 |  4:08.30 |    169062    |   187691
       11  | 41:42.42 |  5:27.43 |    187692    |   212259
       12  | 47:10.10 |  5:22.72 |    212260    |   236481
       13  | 52:33.07 |  3:42.33 |    236482    |   253164
       14  | 56:15.40 |  3:53.60 |    253165    |   270699
       15  | 60:09.25 |  5:21.70 |    270700    |   294844
Track  1
     Filename D:\Video&Music&Books\1998 - Tarkan\01 Sımarik.wav
     Pre-gap length  0:00:02.00
     Peak level 99.9 %
     Extraction speed 4.1 X
     Track quality 100.0 %
     Test CRC 88A0F082
     Copy CRC 88A0F082
     Accurately ripped (confidence 4)  [1504A21F]  (AR v2)
     Copy OK
Track  2
     Filename D:\Video&Music&Books\1998 - Tarkan\02 Olurum Sana.wav
     Peak level 99.9 %
     Extraction speed 4.7 X
     Track quality 100.0 %
     Test CRC 167ED2B4
     Copy CRC 167ED2B4
     Accurately ripped (confidence 4)  [F39EEFFE]  (AR v2)
     Copy OK
Track  3
     Filename D:\Video&Music&Books\1998 - Tarkan\03 Bu Gece (Kir Zincirlerini) (remix 99).wav
     Peak level 99.9 %
     Extraction speed 5.1 X
     Track quality 100.0 %
     Test CRC EE79F9C8
     Copy CRC EE79F9C8
     Accurately ripped (confidence 4)  [E4E76300]  (AR v2)
     Copy OK
Track  4
     Filename D:\Video&Music&Books\1998 - Tarkan\04 Sikidim (Hepsi Senin mi).wav
     Peak level 99.9 %
     Extraction speed 5.2 X
     Track quality 100.0 %
     Test CRC AFAEE70F
     Copy CRC AFAEE70F
     Accurately ripped (confidence 4)  [4C2A0FF8]  (AR v2)
     Copy OK
Track  5
     Filename D:\Video&Music&Books\1998 - Tarkan\05 Salina Salina Sinsice.wav
     Peak level 99.9 %
     Extraction speed 5.6 X
     Track quality 100.0 %
     Test CRC 010198EC
     Copy CRC 010198EC
     Accurately ripped (confidence 4)  [CE36B438]  (AR v2)
     Copy OK
Track  6
     Filename D:\Video&Music&Books\1998 - Tarkan\06 İkimizin Yerine.wav
     Peak level 99.9 %
     Extraction speed 5.5 X
     Track quality 99.9 %
     Test CRC 19DBACD7
     Copy CRC 19DBACD7
     Accurately ripped (confidence 4)  [3A0DDECD]  (AR v2)
     Copy OK
Track  7
     Filename D:\Video&Music&Books\1998 - Tarkan\07 Inci Tanem.wav
     Pre-gap length  0:00:01.02
     Peak level 99.9 %
     Extraction speed 6.0 X
     Track quality 99.9 %
     Test CRC BEAD9BF3
     Copy CRC BEAD9BF3
     Accurately ripped (confidence 4)  [6F72F48F]  (AR v2)
     Copy OK
Track  8
     Filename D:\Video&Music&Books\1998 - Tarkan\08 Don Bebegim.wav
     Pre-gap length  0:00:01.03
     Peak level 99.9 %
     Extraction speed 6.8 X
     Track quality 100.0 %
     Test CRC 3D6E824A
     Copy CRC 3D6E824A
     Accurately ripped (confidence 4)  [E5F46FB1]  (AR v2)
     Copy OK
Track  9
     Filename D:\Video&Music&Books\1998 - Tarkan\09 Basina Bela Olurum.wav
     Pre-gap length  0:00:02.28
     Peak level 99.9 %
     Extraction speed 7.0 X
     Track quality 100.0 %
     Test CRC 4984C3A1
     Copy CRC 4984C3A1
     Accurately ripped (confidence 4)  [A5E5DD74]  (AR v2)
     Copy OK
Track 10
     Filename D:\Video&Music&Books\1998 - Tarkan\10 Gul Doktum Yollarina.wav
     Peak level 99.9 %
     Extraction speed 7.1 X
     Track quality 100.0 %
     Test CRC 900BB2ED
     Copy CRC 900BB2ED
     Accurately ripped (confidence 4)  [A5F54AA2]  (AR v2)
     Copy OK
Track 11
     Filename D:\Video&Music&Books\1998 - Tarkan\11 Unut Beni.wav
     Peak level 99.9 %
     Extraction speed 7.5 X
     Track quality 100.0 %
     Test CRC D38D46E3
     Copy CRC D38D46E3
     Accurately ripped (confidence 4)  [4F60DBB9]  (AR v2)
     Copy OK
Track 12
     Filename D:\Video&Music&Books\1998 - Tarkan\12 Beni Anlama.wav
     Peak level 99.9 %
     Extraction speed 7.8 X
     Track quality 100.0 %
     Test CRC 80657F05
     Copy CRC 80657F05
     Accurately ripped (confidence 4)  [CCB75147]  (AR v2)
     Copy OK
Track 13
     Filename D:\Video&Music&Books\1998 - Tarkan\13 Delikanli Caglarim.wav
     Pre-gap length  0:00:01.07
     Peak level 99.9 %
     Extraction speed 6.6 X
     Track quality 99.9 %
     Test CRC 1245A269
     Copy CRC 1245A269
     Accurately ripped (confidence 4)  [5A3FD774]  (AR v2)
     Copy OK
Track 14
     Filename D:\Video&Music&Books\1998 - Tarkan\14 Simarik (long version).wav
     Peak level 99.9 %
     Extraction speed 7.7 X
     Track quality 100.0 %
     Test CRC 1AB856E1
     Copy CRC 1AB856E1
     Accurately ripped (confidence 3)  [F840E140]  (AR v2)
     Copy OK
Track 15
     Filename D:\Video&Music&Books\1998 - Tarkan\15 Bu Gece (Kir Zincirlerini).wav
     Peak level 99.9 %
     Extraction speed 8.3 X
     Track quality 100.0 %
     Test CRC 1F8573FE
     Copy CRC 1F8573FE
     Accurately ripped (confidence 4)  [47A08A13]  (AR v2)
     Copy OK
All tracks accurately ripped
No errors occurred
End of status report
---- CUETools DB Plugin V2.1.6
[CTDB TOCID: UBCl6XCiPWUJTIIJjbguzR8VUOk-] found
Submit result: UBCl6XCiPWUJTIIJjbguzR8VUOk- has been confirmed
Track | CTDB Status
  1   | (20/21) Accurately ripped
  2   | (20/21) Accurately ripped
  3   | (20/21) Accurately ripped
  4   | (20/21) Accurately ripped
  5   | (20/21) Accurately ripped
  6   | (19/21) Accurately ripped, or (1/21) differs in 6 samples @04:40:29
  7   | (20/21) Accurately ripped
  8   | (19/21) Accurately ripped
  9   | (20/21) Accurately ripped
10   | (20/21) Accurately ripped
11   | (20/21) Accurately ripped
12   | (20/21) Accurately ripped
13   | (20/21) Accurately ripped
14   | (20/21) Accurately ripped
15   | (20/21) Accurately ripped
==== Log checksum 51BFB34B1EA5973C10ED7F3668B230FCA8C5969DCF701F73EB1249A9822D4875 ====

Cue Sheet (.cue):

REM DATE 1998
REM DISCID D40F5B0F
REM COMMENT "ExactAudioCopy v1.1"
PERFORMER "Tarkan"
TITLE "Tarkan"
FILE "01 Simarik.wav" WAVE
  TRACK 01 AUDIO
    TITLE "Simarik"
    PERFORMER "Tarkan"
    INDEX 01 00:00:00
FILE "02 Olurum Sana.wav" WAVE
  TRACK 02 AUDIO
    TITLE "Olurum Sana"
    PERFORMER "Tarkan"
    INDEX 01 00:00:00
FILE "03 Bu Gece (K.r Zincirlerini) (remix 99).wav" WAVE
  TRACK 03 AUDIO
    TITLE "Bu Gece (K.r Zincirlerini) (remix 99)"
    PERFORMER "Tarkan"
    INDEX 01 00:00:00
FILE "04 Sikidim (Hepsi Senin mi).wav" WAVE
  TRACK 04 AUDIO
    TITLE "Sikidim (Hepsi Senin mi?)"
    PERFORMER "Tarkan"
    INDEX 01 00:00:00
FILE "05 Salina Salina Sinsice.wav" WAVE
  TRACK 05 AUDIO
    TITLE "Salina Salina Sinsice"
    PERFORMER "Tarkan"
    INDEX 01 00:00:00
FILE "06 Ikimizin Yerine.wav" WAVE
  TRACK 06 AUDIO
    TITLE "Ikimizin Yerine"
    PERFORMER "Tarkan"
    INDEX 01 00:00:00
  TRACK 07 AUDIO
    TITLE "Inci Tanem"
    PERFORMER "Tarkan"
    INDEX 00 04:39:35
FILE "07 Inci Tanem.wav" WAVE
    INDEX 01 00:00:00
  TRACK 08 AUDIO
    TITLE "Don Bebegim"
    PERFORMER "Tarkan"
    INDEX 00 05:37:45
FILE "08 Don Bebegim.wav" WAVE
    INDEX 01 00:00:00
  TRACK 09 AUDIO
    TITLE "Basina Bela Olurum"
    PERFORMER "Tarkan"
    INDEX 00 04:42:52
FILE "09 Basina Bela Olurum.wav" WAVE
    INDEX 01 00:00:00
FILE "10 Gul Doktum Yollarina.wav" WAVE
  TRACK 10 AUDIO
    TITLE "Gul Doktum Yollar.na"
    PERFORMER "Tarkan"
    INDEX 01 00:00:00
FILE "11 Unut Beni.wav" WAVE
  TRACK 11 AUDIO
    TITLE "Unut Beni"
    PERFORMER "Tarkan"
    INDEX 01 00:00:00
FILE "12 Beni Anlama.wav" WAVE
  TRACK 12 AUDIO
    TITLE "Beni Anlama"
    PERFORMER "Tarkan"
    INDEX 01 00:00:00
  TRACK 13 AUDIO
    TITLE "Delikanli Caglarim"
    PERFORMER "Tarkan"
    INDEX 00 05:21:65
FILE "13 Delikanli Caglarim.wav" WAVE
    INDEX 01 00:00:00
FILE "14 Simarik (long version).wav" WAVE
  TRACK 14 AUDIO
    TITLE "Simarik (long version)"
    PERFORMER "Tarkan"
    INDEX 01 00:00:00
FILE "15 Bu Gece (Kir Zincirlerini).wav" WAVE
  TRACK 15 AUDIO
    TITLE "Bu Gece (Kir Zincirlerini)"
    PERFORMER "Tarkan"
    INDEX 01 00:00:00

Отчёт auCDtect Task manager:

-----------------------
DON"T MODIFY THIS FILE
-----------------------
PERFORMER: auCDtect Task Manager, ver. 1.6.0 RC1 build 1.6.0.1
Copyright (c) 2008-2010 y-soft. All rights reserved
http://y-soft.org
ANALYZER: auCDtect: CD records authenticity detector, version 0.8.2
Copyright (c) 2004 Oleg Berngardt. All rights reserved.
Copyright (c) 2004 Alexander Djourik. All rights reserved.
FILE: 15 Bu Gece (Kir Zincirlerini).flac
  Size: 41210661 Hash: 1BA14C2C0FAA3A0832293F5C7291D4B6 Accuracy: -m0
  Conclusion: CDDA 100%
  Signature: 2B064776F4E188DCB8876F34FF47E72274AC999E
FILE: 14 Simarik (long version).flac
  Size: 30365010 Hash: 58A99FD2ACA1936BE0FE09B2E4F45C44 Accuracy: -m0
  Conclusion: CDDA 100%
  Signature: E570FEFB08448A0492E7D06B80151FF94A856F3F
FILE: 13 Delikanli Caglarim.flac
  Size: 28553770 Hash: BA501C381FA90C38F863CDE312250088 Accuracy: -m0
  Conclusion: CDDA 100%
  Signature: D5BC6807368D9003A73B0A22019798160FCC2AC3
FILE: 12 Beni Anlama.flac
  Size: 34704800 Hash: 9F05C3E6F3E4F1E1BB16DFFCFA7E3F7C Accuracy: -m0
  Conclusion: CDDA 100%
  Signature: 4E3A875C0B7C790974DA8B217022ADD8DC4B6D59
FILE: 11 Unut Beni.flac
  Size: 43087196 Hash: 3B6CEEFA6D3AC0012B62FE9FFDAF4A94 Accuracy: -m0
  Conclusion: CDDA 99%
  Signature: 18A3D755C866EBA275D978C98C466C70920B0777
FILE: 10 Gul Doktum Yollarina.flac
  Size: 32026358 Hash: 4D63106DB5867EE166916CFF5EA152D4 Accuracy: -m0
  Conclusion: CDDA 99%
  Signature: 80D70ADDD98D78D40C2D1B166FBE98753B3802FA
FILE: 09 Basina Bela Olurum.flac
  Size: 33783399 Hash: DA46FC7C7AB557723B5DE28CB2760DC1 Accuracy: -m0
  Conclusion: CDDA 100%
  Signature: 487EEF9350695DADD7FB473CFD8571528473E378
FILE: 08 Don Bebegim.flac
  Size: 30701126 Hash: 253DCB00AEBD39E0A9EC9910AF609D08 Accuracy: -m0
  Conclusion: CDDA 100%
  Signature: 26B185AB1BCAF19BFB25E733C8DCC8B4D826C2E5
FILE: 07 Inci Tanem.flac
  Size: 39938834 Hash: 90ED435776BF5F200D9D4C83F850271D Accuracy: -m0
  Conclusion: CDDA 100%
  Signature: AC38FDFC1EF95896C259B3B960CA79DFB047B3C4
FILE: 06 Ikimizin Yerine.flac
  Size: 36472012 Hash: 5CB1F92A637BC58B39DCFAFB6FB55FEE Accuracy: -m0
  Conclusion: CDDA 100%
  Signature: 26DE4667C19F98533DDE8F37AB3E5508B708E5DA
FILE: 05 Salina Salina Sinsice.flac
  Size: 29832796 Hash: 2A49E598F170ED31DCB1AE12DCFAAE5C Accuracy: -m0
  Conclusion: CDDA 100%
  Signature: 775C74E3433DBADE284747DD4CAA44A417D667B9
FILE: 04 Sikidim (Hepsi Senin mi).flac
  Size: 26597202 Hash: 96BA5641CC7CBCC98351D8F1F04F8A72 Accuracy: -m0
  Conclusion: CDDA 100%
  Signature: 6E36DD830FD1CC5C0AE38D4005046990AD3A4D15
FILE: 03 Bu Gece (Kir Zincirlerini) (remix 99).flac
  Size: 30143972 Hash: 5D594A21A86E35FA5E3310CC6C28E2E5 Accuracy: -m0
  Conclusion: CDDA 100%
  Signature: 67030314227E0A1AB9B530DB509B6D07B42F337A
FILE: 02 Olurum Sana.flac
  Size: 32250998 Hash: CF6E3219763F52C4E1E11EBB30DC0CA7 Accuracy: -m0
  Conclusion: CDDA 100%
  Signature: 5167D10F537743749807728646504E7495D1F6F5
FILE: 01 Simaric.flac
  Size: 24677197 Hash: 0B4DB4C85AD463D1412B87275CB14DA3 Accuracy: -m0
  Conclusion: CDDA 100%
  Signature: 7BB04FD458D2C633642E3CCD3DE09D85590954E3

Спектрограмма:

[Цитировать]



Показать сообщения:    

Текущее время: 05-Дек 21:42

Часовой пояс: UTC + 3


Вы не можете начинать темы
Вы не можете отвечать на сообщения
Вы не можете редактировать свои сообщения
Вы не можете удалять свои сообщения
Вы не можете голосовать в опросах
Вы не можете прикреплять файлы к сообщениям
Вы не можете скачивать файлы

!ВНИМАНИЕ!
Сайт не предоставляет электронные версии произведений, а занимается лишь коллекционированием и каталогизацией ссылок, присылаемых и публикуемых на форуме нашими читателями. Если вы являетесь правообладателем какого-либо представленного материала и не желаете, чтобы ссылка на него находилась в нашем каталоге, свяжитесь с нами, и мы незамедлительно удалим ее. Файлы для обмена на трекере предоставлены пользователями сайта, и администрация не несет ответственности за их содержание. Просьба не заливать файлы, защищенные авторскими правами, а также файлы нелегального содержания!