[ Сегодня идет свободное скачивание без начисления Download ]


Статистика раздачи
Нет
 
   
 
Top  
 
 
Резорт / The Rezort (2015) BDRip 720р Информация о фильме
Название: Резорт
Оригинальное название: The Rezort
Год выхода: 2015
Жанр: Ужасы
Режиссер: Стив Баркер
В ролях: Дугрей Скотт, Джессика Де Гау, Мартин МакКанн, Ричард Лэйн, Джасса Ахлувалиа, Сэм Дуглас, Клэр Гуз, Шэйн Заза, Элен Риз
О фильме:
Предприимчивые владельцы роскошного заповедника предлагают людям необычное развлечение – охоту за зомби. Постояльцы должны проявить храбрость, сообразительность и физическую силу, чтобы отследить и уничтожить очередную жертву. Новый вид спорта привлекает немалое количество рискованных отдыхающих, готовых в строго контролируемой среде выплеснуть свои отрицательные эмоции и жестоко отомстить существам, нарушившим их спокойную жизнь. Психологи утверждают, что подобные убийства благотворно сказываются на состоянии отдыхающих, успокаивая нервы и повышая уверенность в собственных силах. Но не зашли ли люди далеко в своей жестокости?

Страна: Великобритания, Испания, Бельгия
Студия: Black Camel Pictures, Bulletproof Cupid, Captain Starlight Company
Продолжительность: 01:27:54
Перевод: Любительский многоголосый (закадровый) | Студия Пиратского Дубляжа
Файл
Кодек: H.264
Качество: BDRip 720р от SuperMin
Видео: 1280x536 (2.40:1), 3303 kbps, 24.000 fps
Звук:
Русский (AC-3, 6ch, 384 kbps)
Оригинал (AC-3, 6ch, 640 kbps)

Лог

x264 [info]: frame I:1304 Avg QP:15.48 size: 91389
x264 [info]: frame P:33584 Avg QP:16.69 size: 33871
x264 [info]: frame B:95688 Avg QP:20.30 size: 10342
x264 [info]: consecutive B-frames: 4.2% 5.6% 13.2% 22.5% 22.8% 27.4% 2.8% 0.9% 0.7%
encoded 130576 frames, 9.50 fps, 3302.96 kb/s

MI

General
Unique ID : 201775645091171424407593469898788814947 (0x97CC93609C5D7D90AD1D1B7CA22DC063)
Complete name : E:ФИЛЬМЫРезорт.2015.x264.BDRip.720p..mkv
Format : Matroska
Format version : Version 4 / Version 2
File size : 2.74 GiB
Duration : 1h 30mn
Overall bit rate : 4 327 Kbps
Movie name : Резорт (2015) - #LORDKILL#
Encoded date : UTC 2016-09-09 14:16:59
Writing application : mkvmerge v8.0.0 ('Til The Day That I Die') 64bit
Writing library : libebml v1.3.1 + libmatroska v1.4.2
Video
ID : 1
Format : AVC
Format/Info : Advanced Video Codec
Format profile : High@L4.1
Format settings, CABAC : Yes
Format settings, ReFrames : 10 frames
Codec ID : V_MPEG4/ISO/AVC
Duration : 1h 30mn
Bit rate : 3 303 Kbps
Width : 1 280 pixels
Height : 536 pixels
Display aspect ratio : 2.40:1
Frame rate mode : Constant
Frame rate : 24.000 fps
Color space : YUV
Chroma subsampling : 4:2:0
Bit depth : 8 bits
Scan type : Progressive
Bits/(Pixel*Frame) : 0.201
Stream size : 2.09 GiB (76%)
Writing library : x264 core 146 r2538 121396c
Encoding settings : cabac=1 / ref=10 / deblock=1:-1:-1 / analyse=0x3:0x113 / me=umh / subme=10 / psy=1 / psy_rd=1.00:0.10 / mixed_ref=1 / me_range=32 / chroma_me=1 / trellis=2 / 8x8dct=1 / cqm=0 / deadzone=21,11 / fast_pskip=0 / chroma_qp_offset=-3 / threads=12 / lookahead_threads=2 / sliced_threads=0 / nr=0 / decimate=1 / interlaced=0 / bluray_compat=0 / constrained_intra=0 / bframes=8 / b_pyramid=2 / b_adapt=2 / b_bias=0 / direct=1 / weightb=1 / open_gop=0 / weightp=2 / keyint=240 / keyint_min=121 / scenecut=40 / intra_refresh=0 / rc=crf / mbtree=0 / crf=18.0 / qcomp=0.60 / qpmin=0 / qpmax=69 / qpstep=4 / ip_ratio=1.40 / pb_ratio=1.30 / aq=1:1.00
Default : Yes
Forced : No
Audio #1
ID : 2
Format : AC-3
Format/Info : Audio Coding 3
Mode extension : CM (complete main)
Format settings, Endianness : Big
Codec ID : A_AC3
Duration : 1h 30mn
Bit rate mode : Constant
Bit rate : 384 Kbps
Channel(s) : 6 channels
Channel positions : Front: L C R, Side: L R, LFE
Sampling rate : 48.0 KHz
Frame rate : 31.250 fps (1536 spf)
Compression mode : Lossy
Delay relative to video : 24s 0ms
Stream size : 248 MiB (9%)
Language : Russian
Default : Yes
Forced : No
Audio #2
ID : 3
Format : AC-3
Format/Info : Audio Coding 3
Mode extension : CM (complete main)
Format settings, Endianness : Big
Codec ID : A_AC3
Duration : 1h 30mn
Bit rate mode : Constant
Bit rate : 640 Kbps
Channel(s) : 6 channels
Channel positions : Front: L C R, Side: L R, LFE
Sampling rate : 48.0 KHz
Frame rate : 31.250 fps (1536 spf)
Compression mode : Lossy
Stream size : 415 MiB (15%)
Language : English
Default : No
Forced : No
Menu
00:00:00.000 : en:Chapter 01
00:05:23.281 : en:Chapter 02
00:10:12.987 : en:Chapter 03
00:15:53.202 : en:Chapter 04
00:20:13.546 : en:Chapter 05
00:23:41.462 : en:Chapter 06
00:28:51.229 : en:Chapter 07
00:33:30.383 : en:Chapter 08
00:39:37.208 : en:Chapter 09
00:45:05.286 : en:Chapter 10
00:49:43.105 : en:Chapter 11
00:53:26.954 : en:Chapter 12
00:58:40.392 : en:Chapter 13
01:02:42.467 : en:Chapter 14
01:08:22.598 : en:Chapter 15
01:12:51.075 : en:Chapter 16
01:17:35.401 : en:Chapter 17
01:20:58.270 : en:Chapter 18
01:26:11.500 : en:Chapter 19
01:31:42.247 : en:Chapter 20

Скриншоты

[Цитировать]



Показать сообщения:    

Текущее время: 11-Дек 01:29

Часовой пояс: UTC + 3


Вы не можете начинать темы
Вы не можете отвечать на сообщения
Вы не можете редактировать свои сообщения
Вы не можете удалять свои сообщения
Вы не можете голосовать в опросах
Вы не можете прикреплять файлы к сообщениям
Вы не можете скачивать файлы

!ВНИМАНИЕ!
Сайт не предоставляет электронные версии произведений, а занимается лишь коллекционированием и каталогизацией ссылок, присылаемых и публикуемых на форуме нашими читателями. Если вы являетесь правообладателем какого-либо представленного материала и не желаете, чтобы ссылка на него находилась в нашем каталоге, свяжитесь с нами, и мы незамедлительно удалим ее. Файлы для обмена на трекере предоставлены пользователями сайта, и администрация не несет ответственности за их содержание. Просьба не заливать файлы, защищенные авторскими правами, а также файлы нелегального содержания!