[ Сегодня идет свободное скачивание без начисления Download ]


Статистика раздачи
Буду качать: [ 1 ]
Качаю: [ 2 ]
Скачал: [ 4 ]
 
   
 
Top  
 
 
Люди Икс: Апокалипсис / X-Men: Apocalypse - Производство: США, 20th Century Fox Film Corporation, Bad Hat Harry Productions, Donners' Company, Marvel Entertainment, Mel's Cite du Cinema, TSG Entertainment
Жанр: Фантастика, Фэнтези, Боевик, Приключения
Режиссер: Брайан Сингер
Продюсер: Саймон Кинберг, Хатч Паркер, Лорен Шулер Доннер
Актеры: Саймон Кинберг, Лорен Шулер Доннер, Брайан Сингер Актеры: Джеймс МакЭвой, Майкл Фассбендер, Дженнифер Лоуренс, Николас Холт, Оскар Айзек, Роуз Бирн, Эван Питерс, Джош Хелман, Софи Тернер, Тай Шеридан
Описание:
События «Дней Минувшего Будущего» оказали колоссальное влияние на мир, где мутанты и люди борются за свое место под Солнцем. В это нелегкое время Людям Икс предстоит столкнуться со своим самым опасным противником — древним мутантом Апокалипсисом, существом, схватка с которым может стать последней не только для мутантов, но и в принципе для всего человечества. В поисках способа победы над неуязвимым и бессмертным монстром Людям Икс предстоит узнать больше о происхождении своего вида. Но Апокалипсис неимоверно силен, и вероятность победы все уменьшается, ведь он твердо убежден, что только сильнейшие имеют право на выживание…

Возраст: 12+ (зрителям, достигшим 12 лет)
Рейтинг MPAA: PG-13 (детям до 13 лет просмотр нежелателен)
Дата мировой премьеры: 9 мая 2016
Дата российской премьеры: 19 мая 2016, «Двадцатый Век Фокс СНГ»
Продолжительность: 02:23:57
Качество видео: WEB-DLRip 720-LQ 60fps
Перевод: Дублированный (iTunes)
Вид субтитров: Вшитые отключаемые
Язык субтитров: Русский (Forced, Full), Английский (Forced, Full)
Видео: AVC/H.264, 1280x532 (2.40:1), 4092 kb/s, 54.940 fps
Аудио »1: AC3, 6 ch, 48 kHz, ~384 kbps (Русский)
Аудио »2: AC3, 6 ch, 48 kHz, ~384 kbps (Английский)
Аудио »3: AAC, 2 ch, 48 kHz, ~158 kbps (Descriptive/Английский)

Mediainfo:

General
Unique ID : 252609479069139290207249018312695513992 (0xBE0AD0E536D7DC7AAE4E6B8944E48388)
Complete name : D:\Users\Aleks\Videos\X-Men\Люди.Икс.Апокалипсис.2016.WEB-DLRip.720p.60fps.mkv
Format : Matroska
Format version : Version 4 / Version 2
File size : 5.05 GiB
Duration : 2 h 23 min
Overall bit rate : 5 022 kb/s
Movie name : X-Men: Apocalypse (2016) - Release for HDCLUB
Encoded date : UTC 2016-09-09 14:53:25
Writing application : mkvmerge v7.7.0 ('Six Voices') 64bit built on Feb 28 2015 23:39:33
Writing library : libebml v1.3.1 + libmatroska v1.4.2
Video
ID : 1
Format : AVC
Format/Info : Advanced Video Codec
Format profile : High@L4.1
Format settings, CABAC : Yes
Format settings, ReFrames : 5 frames
Codec ID : V_MPEG4/ISO/AVC
Duration : 2 h 23 min
Bit rate : 4 092 kb/s
Width : 1 280 pixels
Height : 532 pixels
Display aspect ratio : 2.40:1
Frame rate mode : Constant
Frame rate : 59.940 (60000/1001) FPS
Color space : YUV
Chroma subsampling : 4:2:0
Bit depth : 8 bits
Scan type : Progressive
Bits/(Pixel*Frame) : 0.100
Stream size : 4.11 GiB (81%)
Title : Rip by izomsk
Writing library : x264 core 148 r2638 7599210
Encoding settings : cabac=1 / ref=5 / deblock=1:-3:-3 / analyse=0x3:0x113 / me=umh / subme=11 / psy=1 / psy_rd=1.00:0.00 / mixed_ref=1 / me_range=32 / chroma_me=1 / trellis=2 / 8x8dct=1 / cqm=0 / deadzone=21,11 / fast_pskip=1 / chroma_qp_offset=-2 / threads=6 / lookahead_threads=1 / sliced_threads=0 / nr=0 / decimate=1 / interlaced=0 / bluray_compat=0 / constrained_intra=0 / bframes=7 / b_pyramid=2 / b_adapt=2 / b_bias=0 / direct=1 / weightb=1 / open_gop=0 / weightp=2 / keyint=1436 / keyint_min=95 / scenecut=40 / intra_refresh=0 / rc_lookahead=40 / rc=crf / mbtree=1 / crf=15.0 / qcomp=0.60 / qpmin=0 / qpmax=69 / qpstep=4 / vbv_maxrate=62500 / vbv_bufsize=78125 / crf_max=0.0 / nal_hrd=none / filler=0 / ip_ratio=1.40 / aq=1:1.00
Language : English
Default : Yes
Forced : No
Audio #1
ID : 2
Format : AC-3
Format/Info : Audio Coding 3
Mode extension : CM (complete main)
Format settings, Endianness : Big
Codec ID : A_AC3
Duration : 2 h 23 min
Bit rate mode : Constant
Bit rate : 384 kb/s
Channel(s) : 6 channels
Channel positions : Front: L C R, Side: L R, LFE
Sampling rate : 48.0 kHz
Frame rate : 31.250 FPS (1536 spf)
Compression mode : Lossy
Stream size : 395 MiB (8%)
Title : AC3 5.1 @ 384 kbps - DUB, iTunes
Language : Russian
Default : Yes
Forced : No
Audio #2
ID : 3
Format : AC-3
Format/Info : Audio Coding 3
Mode extension : CM (complete main)
Format settings, Endianness : Big
Codec ID : A_AC3
Duration : 2 h 23 min
Bit rate mode : Constant
Bit rate : 384 kb/s
Channel(s) : 6 channels
Channel positions : Front: L C R, Side: L R, LFE
Sampling rate : 48.0 kHz
Frame rate : 31.250 FPS (1536 spf)
Compression mode : Lossy
Stream size : 395 MiB (8%)
Title : AC3 5.1 @ 384 kbps
Language : English
Default : No
Forced : No
Audio #3
ID : 4
Format : AAC
Format/Info : Advanced Audio Codec
Format profile : LC
Codec ID : A_AAC
Duration : 2 h 23 min
Bit rate : 157 kb/s
Channel(s) : 2 channels
Channel positions : Front: L R
Sampling rate : 48.0 kHz
Frame rate : 46.875 FPS (1024 spf)
Compression mode : Lossy
Stream size : 162 MiB (3%)
Title : AAC 2.0 @ 160 kbps - Descriptive
Language : English
Default : No
Forced : No
Text #1
ID : 5
Format : UTF-8
Codec ID : S_TEXT/UTF8
Codec ID/Info : UTF-8 Plain Text
Duration : 1 h 26 min
Bit rate : 4 b/s
Count of elements : 95
Stream size : 3.12 KiB (0%)
Title : Forced, iTunes
Language : Russian
Default : Yes
Forced : No
Text #2
ID : 6
Format : UTF-8
Codec ID : S_TEXT/UTF8
Codec ID/Info : UTF-8 Plain Text
Duration : 2 h 22 min
Bit rate : 56 b/s
Count of elements : 1442
Stream size : 59.1 KiB (0%)
Title : iTunes
Language : Russian
Default : No
Forced : No
Text #3
ID : 7
Format : UTF-8
Codec ID : S_TEXT/UTF8
Codec ID/Info : UTF-8 Plain Text
Duration : 1 h 26 min
Bit rate : 3 b/s
Count of elements : 97
Stream size : 1.93 KiB (0%)
Title : Forced, iTunes
Language : English
Default : No
Forced : No
Text #4
ID : 8
Format : UTF-8
Codec ID : S_TEXT/UTF8
Codec ID/Info : UTF-8 Plain Text
Duration : 2 h 12 min
Bit rate : 38 b/s
Count of elements : 1458
Stream size : 37.6 KiB (0%)
Title : iTunes
Language : English
Default : No
Forced : No
Menu
00:00:00.000 : en:Chapter 01
00:08:17.747 : en:Chapter 02
00:14:12.143 : en:Chapter 03
00:18:06.043 : en:Chapter 04
00:24:54.451 : en:Chapter 05
00:30:44.300 : en:Chapter 06
00:36:34.191 : en:Chapter 07
00:40:59.039 : en:Chapter 08
00:45:55.460 : en:Chapter 09
00:49:23.251 : en:Chapter 10
00:55:21.567 : en:Chapter 11
00:59:35.779 : en:Chapter 12
01:04:42.627 : en:Chapter 13
01:12:34.807 : en:Chapter 14
01:17:31.854 : en:Chapter 15
01:22:17.472 : en:Chapter 16
01:27:44.549 : en:Chapter 17
01:34:04.762 : en:Chapter 18
01:36:45.589 : en:Chapter 19
01:39:49.856 : en:Chapter 20
01:43:33.329 : en:Chapter 21
01:49:56.337 : en:Chapter 22
01:55:07.314 : en:Chapter 23
01:57:20.613 : en:Chapter 24
02:03:49.501 : en:Chapter 25
02:07:55.663 : en:Chapter 26
02:10:58.053 : en:Chapter 27
02:14:04.989 : en:Chapter 28

Скриншоты:

[Цитировать]



Показать сообщения:    

Текущее время: 08-Дек 12:57

Часовой пояс: UTC + 3


Вы не можете начинать темы
Вы не можете отвечать на сообщения
Вы не можете редактировать свои сообщения
Вы не можете удалять свои сообщения
Вы не можете голосовать в опросах
Вы не можете прикреплять файлы к сообщениям
Вы не можете скачивать файлы

!ВНИМАНИЕ!
Сайт не предоставляет электронные версии произведений, а занимается лишь коллекционированием и каталогизацией ссылок, присылаемых и публикуемых на форуме нашими читателями. Если вы являетесь правообладателем какого-либо представленного материала и не желаете, чтобы ссылка на него находилась в нашем каталоге, свяжитесь с нами, и мы незамедлительно удалим ее. Файлы для обмена на трекере предоставлены пользователями сайта, и администрация не несет ответственности за их содержание. Просьба не заливать файлы, защищенные авторскими правами, а также файлы нелегального содержания!