[ Сегодня идет свободное скачивание без начисления Download ]


Статистика раздачи
Скачал: [ 1 ]
 
   
 
Top  
 
 
Путешествие в машине времени / Time After Time Информация о фильме
Название: Путешествие в машине времени
Оригинальное название: Time After Time
Год выхода: 1979
Жанр: фантастика, триллер, драма, мелодрама, приключения
Режиссер: Николас Мейер
В ролях: Малкольм МакДауэлл, Дэвид Уорнер, Мэри Стинберген, Чарльз Чоффи, Кент Уильямс, Андония Катсарос, Патти Д`Арбанвилль, Джеймс Гаррет, Лео Льюис, Кит МакКоннелл, Байрон Уэбстер, Джеральдин Барон, Лори Майн, Джозеф Маэр, Майкл Эванс
О фильме:
В викторианской Англии Джек-Потрошитель убивает очередную проститутку. Полиция следует за ним и приходит в дом писателя Герберта Уэллса, который собрал друзей, чтобы представить им свое изобретение — машину времени. Он еще не успел ее испытать, но за него это сделал Джек-Потрошитель, который, скрываясь от полиции, отправился в 1979 год. Герберт Уэллс, убежденный, что в будущем наступит утопия, не будет войн и преступности, решает отправиться вслед за ним, ибо этот кровавый маньяк может посеять хаос в Утопии…

Страна: США
Студия: Orion Pictures, Warner Bros.
Продолжительность: 01:52:00
Перевод: Профессиональный многоголосый (ТВ3)
Файл
Кодек: x264
Качество: HDTVRip-AVC
Видео: MPEG-4 AVC, 2205 Кбит/с, 1024x424, 23.976 кадр/с
Аудио #1: AC3, 2 ch, 192 Кбит/с | Русский
Аудио #2: AC3, 6 ch, 384 Кбит/с | Английский

MediaInfo

Общее
Уникальный идентификатор : 181731095238146251524600008390567317239 (0x88B822C4BDEE6D5896C9CF20EF94CEF7)
Полное имя : Time.After.Time.1979.HDTVRip-AVC.mkv
Формат : Matroska
Версия формата : Version 4 / Version 2
Размер файла : 2,18 Гбайт
Продолжительность : 1 ч. 52 м.
Общий поток : 2783 Кбит/сек
Название фильма : Time After Time
Режиссёр : Nicholas Meyer
Дата кодирования : UTC 2016-09-10 06:54:15
Программа кодирования : mkvmerge v9.2.0 ('Photograph') 32bit
Библиотека кодирования : libebml v1.3.3 + libmatroska v1.4.4
Обложка : Yes
Attachments : cover.jpg
Release : Koenig
Видео
Идентификатор : 1
Формат : AVC
Формат/Информация : Advanced Video Codec
Профиль формата : High@L4.1
Параметр CABAC формата : Да
Параметр ReFrames формата : 9 кадров
Идентификатор кодека : V_MPEG4/ISO/AVC
Продолжительность : 1 ч. 51 м.
Битрейт : 2205 Кбит/сек
Ширина : 1024 пикселя
Высота : 424 пикселя
Соотношение сторон : 2,40:1
Режим частоты кадров : Постоянный
Частота кадров : 23,976 (24000/1001) кадра/сек
Цветовое пространство : YUV
Субдискретизация насыщенности : 4:2:0
Битовая глубина : 8 бит
Тип развёртки : Прогрессивная
Бит/(Пиксели*Кадры) : 0.212
Размер потока : 1,73 Гбайт (79%)
Библиотека кодирования : x264 core 148 r2692 64f4e24
Настройки программы : cabac=1 / ref=9 / deblock=1:-3:-3 / analyse=0x3:0x133 / me=umh / subme=10 / psy=1 / psy_rd=1.00:0.00 / mixed_ref=1 / me_range=32 / chroma_me=1 / trellis=2 / 8x8dct=1 / cqm=0 / deadzone=21,11 / fast_pskip=0 / chroma_qp_offset=-2 / threads=3 / lookahead_threads=1 / sliced_threads=0 / nr=0 / decimate=1 / interlaced=0 / bluray_compat=0 / constrained_intra=0 / bframes=10 / b_pyramid=2 / b_adapt=2 / b_bias=0 / direct=3 / weightb=1 / open_gop=0 / weightp=2 / keyint=240 / keyint_min=23 / scenecut=40 / intra_refresh=0 / rc_lookahead=40 / rc=2pass / mbtree=1 / bitrate=2205 / ratetol=1.0 / qcomp=0.60 / qpmin=10 / qpmax=51 / qpstep=4 / cplxblur=20.0 / qblur=0.5 / vbv_maxrate=50000 / vbv_bufsize=62500 / nal_hrd=none / filler=0 / ip_ratio=1.40 / aq=1:1.00
Default : Да
Forced : Нет
Аудио #1
Идентификатор : 2
Формат : AC-3
Формат/Информация : Audio Coding 3
Расширение режима : CM (complete main)
Параметр Endianness формата : Big
Идентификатор кодека : A_AC3
Продолжительность : 1 ч. 52 м.
Вид битрейта : Постоянный
Битрейт : 192 Кбит/сек
Каналы : 2 канала
Расположение каналов : Front: L R
Частота : 48,0 КГц
Частота кадров : 31,250 кадров/сек (1536 spf)
Метод сжатия : С потерями
Размер потока : 154 Мбайт (7%)
Заголовок : MVO - ТВ3
Язык : Russian
Default : Да
Forced : Нет
Аудио #2
Идентификатор : 3
Формат : AC-3
Формат/Информация : Audio Coding 3
Расширение режима : CM (complete main)
Параметр Endianness формата : Big
Идентификатор кодека : A_AC3
Продолжительность : 1 ч. 51 м.
Вид битрейта : Постоянный
Битрейт : 384 Кбит/сек
Каналы : 6 каналов
Расположение каналов : Front: L C R, Side: L R, LFE
Частота : 48,0 КГц
Частота кадров : 31,250 кадров/сек (1536 spf)
Метод сжатия : С потерями
Размер потока : 308 Мбайт (14%)
Язык : English
Default : Нет
Forced : Нет

Скриншоты

[Цитировать]

Топик был перенесен из форума Фантастика в форум Классика мирового кинематографа
Scorpio



Показать сообщения:    

Текущее время: 10-Дек 11:57

Часовой пояс: UTC + 3


Вы не можете начинать темы
Вы не можете отвечать на сообщения
Вы не можете редактировать свои сообщения
Вы не можете удалять свои сообщения
Вы не можете голосовать в опросах
Вы не можете прикреплять файлы к сообщениям
Вы не можете скачивать файлы

!ВНИМАНИЕ!
Сайт не предоставляет электронные версии произведений, а занимается лишь коллекционированием и каталогизацией ссылок, присылаемых и публикуемых на форуме нашими читателями. Если вы являетесь правообладателем какого-либо представленного материала и не желаете, чтобы ссылка на него находилась в нашем каталоге, свяжитесь с нами, и мы незамедлительно удалим ее. Файлы для обмена на трекере предоставлены пользователями сайта, и администрация не несет ответственности за их содержание. Просьба не заливать файлы, защищенные авторскими правами, а также файлы нелегального содержания!