[ Сегодня идет свободное скачивание без начисления Download ]


Статистика раздачи
Нет
 
   
 
Top  
 
 
Сбежавшая невестаRunaway Bride«They're Off And Running July 20.» Год выпуска: 1999
Страна: США
Жанр: мелодрама, комедия
Продолжительность: 01:56:20
Перевод: Профессиональный (дублированный)
Субтитры: Russian , English (srt)
Режиссер: Гэрри Маршалл

В ролях: Джулия Робертс / Julia Roberts (Maggie Carpenter, $ 17 000 000 ), Ричард Гир / Richard Gere (Ike Graham, $ 13 000 000 ), Джоан Кьюсак / Joan Cusack (Peggy Flemming), Гектор Элизондо / Hector Elizondo (Fisher), Рита Уилсон / Rita Wilson (Ellie Graham), Пол Дули / Paul Dooley (Walter Carpenter), Кристофер Мелони / Christopher Meloni (Coach Bob Kelly), Донал Лог / Donal Logue (Priest Brian Norris), Рег Роджерс / Reg Rogers (George «Bug Guy» Swilling), Юл Васкез / Yul Vazquez (Dead Head Gill Chavez)
Описание: Бывает у красоток одна нехорошая привычка — сбегать со свадеб. Вот и Мэгги, влюбившись и отправившись под венец, не выдержала и не дошла до алтаря всего несколько шагов. На такую выходку еще можно было бы закрыть глаза, если бы это случилось один раз. Но Мэгги проделала этот фокус четырежды!И вскоре она уже потеряла бы счет разбитым сердцам, если бы на пути вертихвостки не встал знаменитый журналист Айк. Однако, и ему не суждено было устоять перед чарами красавицы. Станет ли он очередной жертвой Мэгги, или тертому репортеру удастся все-таки окольцевать ветренную невесту?

Рейтинг MPAA: Рекомендуется присутствие родителей
Рейтинг ВКИП: для детей старше 16 лет

Качество: BDRip 1080p
Формат: MKV
Видео кодек: H.264 (AVC)
Аудио кодеk: AC3
Видео: 1912x812 (2.35:1), 23.976 fps, AVC, 9500 Kbps
Аудио:
Аудио #1: AC3, 640 Kbps, 48.0 KHz, 6 ch RUS Dub
Аудио #2: AC3, 640 Kbps, 48.0 KHz, 6 ch Eng

МедиаИнфо


x264 [info]: frame I:1237 Avg QP:16.09 size:234673
x264 [info]: frame P:35734 Avg QP:18.33 size:103911
x264 [info]: frame B:130386 Avg QP:20.52 size: 32866
x264 [info]: consecutive B-frames: 1.9% 3.1% 9.6% 11.5% 9.8% 62.3% 1.7% 0.1%
x264 [info]: encoded 167357 frames, 5.68 fps, 9499.71 kb/s, duration 8:11:20.01
*********************************************************************************
General
Unique ID : 197728691383553665318429076323897538106 (0x94C1292791647C6EB34EC0488849763A)
Complete name : Runaway.Bride.1999.1080p.F-HD.mkv
Format : Matroska
Format version : Version 4 / Version 2
File size : 8.76 GiB
Duration : 1h 56mn
Overall bit rate : 10.8 Mbps
Encoded date : UTC 2013-06-13 21:28:30
Writing application : mkvmerge v6.2.0 ('Promised Land') built on Apr 28 2013 12:22:01
Writing library : libebml v1.3.0 + libmatroska v1.4.0
Video
ID : 1
Format : AVC
Format/Info : Advanced Video Codec
Format profile : [email protected]
Format settings, CABAC : Yes
Format settings, ReFrames : 5 frames
Codec ID : V_MPEG4/ISO/AVC
Duration : 1h 56mn
Bit rate : 9 500 Kbps
Width : 1 912 pixels
Height : 812 pixels
Display aspect ratio : 2.35:1
Frame rate mode : Constant
Frame rate : 23.976 fps
Color space : YUV
Chroma subsampling : 4:2:0
Bit depth : 8 bits
Scan type : Progressive
Bits/(Pixel*Frame) : 0.255
Stream size : 7.54 GiB (86%)
Writing library : x264 core 133 r2334kMod a3ac64b
Encoding settings : cabac=1 / ref=5 / deblock=1:-3:-3 / analyse=0x3:0x113 / me=umh / subme=10 / psy=1 / fade_compensate=0.00 / psy_rd=1.00:0.05 / mixed_ref=1 / me_range=48 / chroma_me=1 / trellis=2 / 8x8dct=1 / cqm=0 / deadzone=21,11 / fast_pskip=0 / chroma_qp_offset=-3 / threads=6 / lookahead_threads=1 / sliced_threads=0 / nr=0 / decimate=1 / interlaced=0 / bluray_compat=0 / constrained_intra=0 / bframes=7 / b_pyramid=2 / b_adapt=2 / b_bias=0 / direct=3 / weightb=1 / open_gop=0 / weightp=2 / keyint=250 / keyint_min=23 / scenecut=40 / intra_refresh=0 / rc_lookahead=40 / rc=2pass / mbtree=0 / bitrate=9500 / ratetol=1.0 / qcomp=0.75 / qpmin=0 / qpmax=69 / qpstep=4 / cplxblur=20.0 / qblur=0.5 / vbv_maxrate=62500 / vbv_bufsize=78125 / nal_hrd=none / ip_ratio=1.40 / pb_ratio=1.30 / aq=1:0.80
Language : English
Default : Yes
Forced : No
Matrix coefficients : BT.709
Audio #1
ID : 2
Format : AC-3
Format/Info : Audio Coding 3
Mode extension : CM (complete main)
Format settings, Endianness : Big
Codec ID : A_AC3
Duration : 1h 56mn
Bit rate mode : Constant
Bit rate : 640 Kbps
Channel(s) : 6 channels
Channel positions : Front: L C R, Side: L R, LFE
Sampling rate : 48.0 KHz
Bit depth : 16 bits
Compression mode : Lossy
Stream size : 533 MiB (6%)
Language : Russian
Default : Yes
Forced : No
Audio #2
ID : 3
Format : AC-3
Format/Info : Audio Coding 3
Mode extension : CM (complete main)
Format settings, Endianness : Big
Codec ID : A_AC3
Duration : 1h 56mn
Bit rate mode : Constant
Bit rate : 640 Kbps
Channel(s) : 6 channels
Channel positions : Front: L C R, Side: L R, LFE
Sampling rate : 48.0 KHz
Bit depth : 16 bits
Compression mode : Lossy
Stream size : 533 MiB (6%)
Language : English
Default : No
Forced : No
Text #1
ID : 4
Format : UTF-8
Codec ID : S_TEXT/UTF8
Codec ID/Info : UTF-8 Plain Text
Language : Russian
Default : No
Forced : No
Text #2
ID : 5
Format : UTF-8
Codec ID : S_TEXT/UTF8
Codec ID/Info : UTF-8 Plain Text
Language : English
Default : No
Forced : No
Menu
00:00:00.000 : en:00:00:00.000
00:06:49.784 : en:00:06:49.784
00:15:10.409 : en:00:15:10.409
00:20:44.451 : en:00:20:44.451
00:27:54.255 : en:00:27:54.255
00:34:24.145 : en:00:34:24.145
00:41:56.680 : en:00:41:56.680
00:48:49.801 : en:00:48:49.801
00:57:09.175 : en:00:57:09.175
01:03:11.120 : en:01:03:11.120
01:07:05.980 : en:01:07:05.980
01:08:44.328 : en:01:08:44.328
01:18:08.141 : en:01:18:08.141
01:23:58.783 : en:01:23:58.783
01:28:13.037 : en:01:28:13.037
01:33:49.790 : en:01:33:49.790
01:39:01.894 : en:01:39:01.894
01:47:38.410 : en:01:47:38.410

Скриншоты

[Цитировать]



Показать сообщения:    

Текущее время: 06-Дек 05:58

Часовой пояс: UTC + 3


Вы не можете начинать темы
Вы не можете отвечать на сообщения
Вы не можете редактировать свои сообщения
Вы не можете удалять свои сообщения
Вы не можете голосовать в опросах
Вы не можете прикреплять файлы к сообщениям
Вы не можете скачивать файлы

!ВНИМАНИЕ!
Сайт не предоставляет электронные версии произведений, а занимается лишь коллекционированием и каталогизацией ссылок, присылаемых и публикуемых на форуме нашими читателями. Если вы являетесь правообладателем какого-либо представленного материала и не желаете, чтобы ссылка на него находилась в нашем каталоге, свяжитесь с нами, и мы незамедлительно удалим ее. Файлы для обмена на трекере предоставлены пользователями сайта, и администрация не несет ответственности за их содержание. Просьба не заливать файлы, защищенные авторскими правами, а также файлы нелегального содержания!