[ Сегодня идет свободное скачивание без начисления Download ]


Статистика раздачи
Нет
 
   
 
Top  
 
 
-Доспехи бога / Armour of God (1986) [1080p] BDRip- Русское название: Доспехи бога
Оригинальное название: Armour of God
Год выпуска: 1986
Производство: Югославия, Гонконг
Жанр: боевик, комедия, приключения
Перевод: Многоголосый Закадровый х4, Авторский одноголосый х3
Субтитры: Отсутствуют
Дата мировой премьеры: 16 августа 1986
Дата выхода DVD релиза: 7 декабря 2006, «Союз-Видео»
Режиссер: Джеки Чан, Эрик Цан
Актеры: Джеки Чан, Алан Там, Розамунд Кван, Лола Форнер, Кен Бойл, Роберт О`Брайэн, Борис Грегорич, Алисия Шонте
Описание фильма:
«Азиатский ястреб» - так назвали героя Джеки в Европе. Когда он похитил в Африке ритуальный меч, то не предполагал, что это начало опасных приключений. Оказывается, что меч - часть древних доспехов Бога, и если их уничтожить, то в мире будут править силы Ужаса и Зла. Силы Зла, которые укрылись в неприступном монастыре, узнают, что у Джеки есть доступ к остальным доспехам. Они похищают девушку, которую любит Ястреб, и требуют выкупа. Понимая, что одной ловкостью ему не справиться с полчищами бандитов, Джеки добровольно становится человеком - бомбой. Но этот козырь он приберег на самый крайний случай…
Продолжительность: 01:24:42
-

Рейтинг R - Детям до 17 лет обязательно присутствие родителей-Качество видео: BDRip
Видеокодек: MPEG-4 AVC/H.264
Аудиокодек: AC-3, DTS
Bидео: 1916х1080 at 23.976 fps, ~14,1 Мb/s
Аудио# 1: Русский: AC-3, 2.0 ch, 192 kb/s |Многоголосый, Союз Видео|
Аудио# 2: Русский: AC-3, 5.1 ch, 448 kb/s |Одноголосый, Гаврилов|
Аудио# 3: Русский: AC-3, 2.0 ch, 192 kb/s |Многоголосый, НТВ|
Аудио# 4: Русский: AC-3, 2.0 ch, 192 kb/s |Многоголосый, РТР|
Аудио# 5: Русский: DTS, 2.0 ch, 1509 kb/s |Духголосый, Гланц и Королёва|
Аудио# 6: Русский: AC-3, 2.0 ch, 192 kb/s |Многоголосый, Рен ТВ|
Аудио# 7: Русский: AC-3, 2.0 ch, 192 kb/s |Одноголосый, Стилан Видео (Сонькин)|
Аудио# 8: Русский: AC-3, 2.0 ch, 192 kb/s |Одноголосый, Володарский|
Аудио# 9: Английский: DTS, 2.0 ch, 1509 kb/s

Знаете ли вы что...

При прыжке со стены замка на дерево Чан не удержался и упал на камень, пробив череп. Травма основания черепа, мозговое кровоизлияние. В результате правое ухо слышит хуже левого. Это самая серьезная травма, чуть было не стоившая Джеки Чану жизни.
В ходе съемок сцены, где Джеки дерется с четырьмя девушками, он в некоторых моментах заменял их на каскадеров из своей группы.
Съёмки кинофильма «Доспехи бога» проходили в Социалистической Федеративной Республике Югославия, при участии югославских кинематографистов.
В эпизоде, где Чан спасает из темницы своих друзей, Лаура обращается к нему по имени «Кунсан», а чуть позже — «Чан Кунсан». На самом деле Кунсан — это настоящее имя Джеки, данное ему при рождении. В американской версии фильма «Кунсан» изменили на «ковбой».
Полная версия фильма имеет хронометраж 97 минут.
Из-за травмы черепа, в начале фильма Джеки сначала с короткой стрижкой, а после прыжка со стены замка он катается по траве с уже отросшими волосами.

MediaInfo:

Формат : Matroska
Версия формата : Version 2
Размер файла : 11,6 Гбайт
Продолжительность : 1 ч. 28 м.
Общий поток : 18,7 Мбит/сек
Название фильма : Доспехи бога 2: Операция Кондор / The Armour of God 2: Operation Condor.1991 Release for HDtracker& MeGUI
Дата кодирования : UTC 2013-02-08 17:48:00
Программа кодирования : mkvmerge v3.4.0 ('Rapunzel') сборка от May 15 2010 09:38:20
Библиотека кодирования : libebml v0.8.0 + libmatroska v0.9.0
Видео
Идентификатор : 1
Формат : AVC
Формат/Информация : Advanced Video Codec
Профиль формата : High@L4.1
Параметр CABAC формата : Да
Параметр ReFrames формата : 4 кадра
Идентификатор кодека : V_MPEG4/ISO/AVC
Продолжительность : 1 ч. 28 м.
Битрейт : 14,1 Мбит/сек
Ширина : 1916 пикселей
Высота : 1080 пикселей
Соотношение сторон : 16:9
Режим частоты кадров : Постоянный
Частота кадров : 23,976 кадра/сек
Цветовое пространство : YUV
Субдискретизация насыщенности : 4:2:0
Битовая глубина : 8 бит
Тип развёртки : Прогрессивная
Бит/(Пиксели*Кадры) : 0.284
Размер потока : 8,49 Гбайт (73%)
Библиотека кодирования : x264 core 129 r2245 bc13772
Настройки программы : cabac=1 / ref=4 / deblock=1:-3:-3 / analyse=0x3:0x133 / me=umh / subme=11 / psy=1 / psy_rd=1.05:0.10 / mixed_ref=1 / me_range=32 / chroma_me=1 / trellis=2 / 8x8dct=1 / cqm=0 / deadzone=21,11 / fast_pskip=0 / chroma_qp_offset=-3 / threads=12 / lookahead_threads=2 / sliced_threads=0 / nr=0 / decimate=1 / interlaced=0 / bluray_compat=0 / constrained_intra=0 / bframes=7 / b_pyramid=2 / b_adapt=2 / b_bias=0 / direct=3 / weightb=1 / open_gop=0 / weightp=2 / keyint=240 / keyint_min=22 / scenecut=40 / intra_refresh=0 / rc_lookahead=60 / rc=2pass / mbtree=1 / bitrate=14100 / ratetol=1.0 / qcomp=0.70 / qpmin=0 / qpmax=69 / qpstep=4 / cplxblur=20.0 / qblur=0.5 / vbv_maxrate=50000 / vbv_bufsize=62500 / nal_hrd=none / ip_ratio=1.40 / aq=2:1.00
Язык : English
Default : Нет
Forced : Нет
Аудио #1
Идентификатор : 2
Формат : AC-3
Формат/Информация : Audio Coding 3
Расширение режима : CM (complete main)
Параметр Endianness формата : Big
Идентификатор кодека : A_AC3
Продолжительность : 1 ч. 28 м.
Вид битрейта : Постоянный
Битрейт : 192 Кбит/сек
Каналы : 2 канала
Расположение каналов : Front: L R
Частота : 48,0 КГц
Битовая глубина : 16 бит
Метод сжатия : С потерями
Размер потока : 122 Мбайт (1%)
Заголовок : AC3 2.0 MVO-Союз Видео
Язык : Russian
Default : Да
Forced : Нет
Аудио #2
Идентификатор : 3
Формат : AC-3
Формат/Информация : Audio Coding 3
Расширение режима : CM (complete main)
Параметр Endianness формата : Big
Идентификатор кодека : A_AC3
Продолжительность : 1 ч. 28 м.
Вид битрейта : Постоянный
Битрейт : 448 Кбит/сек
Каналы : 6 каналов
Расположение каналов : Front: L C R, Side: L R, LFE
Частота : 48,0 КГц
Битовая глубина : 16 бит
Метод сжатия : С потерями
Размер потока : 284 Мбайт (2%)
Заголовок : AC3 5.1 AVO-Гаврилов
Язык : Russian
Default : Нет
Forced : Нет
Аудио #3
Идентификатор : 4
Формат : AC-3
Формат/Информация : Audio Coding 3
Расширение режима : CM (complete main)
Параметр Endianness формата : Big
Идентификатор кодека : A_AC3
Продолжительность : 1 ч. 28 м.
Вид битрейта : Постоянный
Битрейт : 192 Кбит/сек
Каналы : 2 канала
Расположение каналов : Front: L R
Частота : 48,0 КГц
Битовая глубина : 16 бит
Метод сжатия : С потерями
Размер потока : 122 Мбайт (1%)
Заголовок : AC3 2.0 MVO-НТВ
Язык : Russian
Default : Нет
Forced : Нет
Аудио #4
Идентификатор : 5
Формат : AC-3
Формат/Информация : Audio Coding 3
Расширение режима : CM (complete main)
Параметр Endianness формата : Big
Идентификатор кодека : A_AC3
Продолжительность : 1 ч. 28 м.
Вид битрейта : Постоянный
Битрейт : 192 Кбит/сек
Каналы : 2 канала
Расположение каналов : Front: L R
Частота : 48,0 КГц
Битовая глубина : 16 бит
Метод сжатия : С потерями
Размер потока : 122 Мбайт (1%)
Заголовок : AC3 2.0 MVO-РТР
Язык : Russian
Default : Нет
Forced : Нет
Аудио #5
Идентификатор : 6
Формат : DTS
Формат/Информация : Digital Theater Systems
Режим : 16
Параметр Endianness формата : Big
Идентификатор кодека : A_DTS
Продолжительность : 1 ч. 28 м.
Вид битрейта : Постоянный
Битрейт : 1509 Кбит/сек
Каналы : 2 канала
Расположение каналов : Front: L R
Частота : 48,0 КГц
Битовая глубина : 24 бит
Метод сжатия : С потерями
Размер потока : 956 Мбайт (8%)
Заголовок : DTS 2.0 DVO-Гланц и Королёва
Язык : Russian
Default : Нет
Forced : Нет
Аудио #6
Идентификатор : 7
Формат : AC-3
Формат/Информация : Audio Coding 3
Расширение режима : CM (complete main)
Параметр Endianness формата : Big
Идентификатор кодека : A_AC3
Продолжительность : 1 ч. 28 м.
Вид битрейта : Постоянный
Битрейт : 192 Кбит/сек
Каналы : 2 канала
Расположение каналов : Front: L R
Частота : 48,0 КГц
Битовая глубина : 16 бит
Метод сжатия : С потерями
Размер потока : 122 Мбайт (1%)
Заголовок : AC3 2.0 MVO-Рен ТВ
Язык : Russian
Default : Нет
Forced : Нет
Аудио #7
Идентификатор : 8
Формат : AC-3
Формат/Информация : Audio Coding 3
Расширение режима : CM (complete main)
Параметр Endianness формата : Big
Идентификатор кодека : A_AC3
Продолжительность : 1 ч. 28 м.
Вид битрейта : Постоянный
Битрейт : 192 Кбит/сек
Каналы : 2 канала
Расположение каналов : Front: L R
Частота : 48,0 КГц
Битовая глубина : 16 бит
Метод сжатия : С потерями
Размер потока : 122 Мбайт (1%)
Заголовок : AC3 2.0 AVO-Сонькин
Язык : Russian
Default : Нет
Forced : Нет
Аудио #8
Идентификатор : 9
Формат : AC-3
Формат/Информация : Audio Coding 3
Расширение режима : CM (complete main)
Параметр Endianness формата : Big
Идентификатор кодека : A_AC3
Продолжительность : 1 ч. 28 м.
Вид битрейта : Постоянный
Битрейт : 192 Кбит/сек
Каналы : 2 канала
Расположение каналов : Front: L R
Частота : 48,0 КГц
Битовая глубина : 16 бит
Метод сжатия : С потерями
Размер потока : 122 Мбайт (1%)
Заголовок : AC3 2.0 AVO-Володарский
Язык : Russian
Default : Нет
Forced : Нет
Аудио #9
Идентификатор : 10
Формат : DTS
Формат/Информация : Digital Theater Systems
Режим : 16
Параметр Endianness формата : Big
Идентификатор кодека : A_DTS
Продолжительность : 1 ч. 28 м.
Вид битрейта : Постоянный
Битрейт : 1509 Кбит/сек
Каналы : 2 канала
Расположение каналов : Front: L R
Частота : 48,0 КГц
Битовая глубина : 24 бит
Метод сжатия : С потерями
Размер потока : 956 Мбайт (8%)
Заголовок : DTS 2.0
Язык : English
Default : Нет
Forced : Нет
Меню
00:00:00.000 : en:00:00:00.000
00:05:04.304 : en:00:05:04.304
00:12:38.132 : en:00:12:38.132
00:16:14.974 : en:00:16:14.974
00:23:52.431 : en:00:23:52.431
00:28:11.690 : en:00:28:11.690
00:37:34.252 : en:00:37:34.252
00:41:36.411 : en:00:41:36.411
00:46:30.788 : en:00:46:30.788
00:51:32.089 : en:00:51:32.089
00:57:40.457 : en:00:57:40.457
01:03:07.784 : en:01:03:07.784
01:07:17.033 : en:01:07:17.033
01:12:38.354 : en:01:12:38.354
01:18:52.728 : en:01:18:52.728
Скриншоты:


Время раздачи: До первых 10 скачавших

[Цитировать]



Показать сообщения:    

Текущее время: 10-Дек 06:05

Часовой пояс: UTC + 3


Вы не можете начинать темы
Вы не можете отвечать на сообщения
Вы не можете редактировать свои сообщения
Вы не можете удалять свои сообщения
Вы не можете голосовать в опросах
Вы не можете прикреплять файлы к сообщениям
Вы не можете скачивать файлы

!ВНИМАНИЕ!
Сайт не предоставляет электронные версии произведений, а занимается лишь коллекционированием и каталогизацией ссылок, присылаемых и публикуемых на форуме нашими читателями. Если вы являетесь правообладателем какого-либо представленного материала и не желаете, чтобы ссылка на него находилась в нашем каталоге, свяжитесь с нами, и мы незамедлительно удалим ее. Файлы для обмена на трекере предоставлены пользователями сайта, и администрация не несет ответственности за их содержание. Просьба не заливать файлы, защищенные авторскими правами, а также файлы нелегального содержания!