[ Сегодня идет свободное скачивание без начисления Download ]


Статистика раздачи
Нет
 
   
 
Top  
 
 
-Джунгли (2012) BDRip- Русское название: Джунгли
Год выпуска: 2012
Производство: Россия / Кинокомпания CTB
Жанр: мелодрама, комедия, приключения
Перевод: Не требуется (Русский) [лицензия]
Субтитры: Отсутствуют
Дата мировой премьеры: 29 ноября 2012
Дата российской премьеры: 29 ноября 2012, «Наше Кино»
Дата выхода DVD релиза: 18 декабря 2012, «Lizard Cinema Trade»
Режиссер: Александр Войтинский
Продюсер: Сергей Сельянов, Александр Войтинский, Михаил Врубель
Актеры: Сергей Светлаков, Вера Брежнева, Александр Макогон, Александр Половцев, Марина Дюжева, Михаил Ефремов, Ирина Медведева, Андрей Гаврилов
Описание фильма:
У Сергея и Марины в семейной жизни наступил кризис. Во время одной из ссор, они решают поехать в экзотическое путешествие. Всю дорогу между супругами не утихают ссоры, которые в конце концов приводят к тому, что они оказываются на необитаемом острове, затерянном в океане. Вместо того чтобы вместе бороться за выживание, наши герои продолжают выяснять отношения, постепенно переходя к настоящим боевым действиям. В довершение несчастий оказывается, что остров населен племенем воинствующих туземцев.

Продолжительность: 01:23:27
Качество видео: BDRip
Видеокодек: MPEG-4 AVC/H.264
Битрейт видео: 3304 Кбит/сек
Размер кадра: 1280x544
Аудиокодек: AC3 5.1
Битрейт аудио: 448 Кбит/сек

MediaInfo

Общее
Уникальный идентификатор : 196372276591156247444287753684761631062 (0x93BBECBDF3C133BB949D58B274D6D956)
Полное имя : E:\Dzhungli.2012.x264.BDRip.720p.mkv
Формат : Matroska
Версия формата : Version 2
Размер файла : 2,19 Гбайт
Продолжительность : 1 ч. 23 м.
Общий поток : 3753 Кбит/сек
Дата кодирования : UTC 2013-01-27 10:05:00
Программа кодирования : mkvmerge v5.8.0 ('No Sleep / Pillow') built on Sep 2 2012 15:37:04
Библиотека кодирования : libebml v1.2.3 + libmatroska v1.3.0
Видео
Идентификатор : 1
Формат : AVC
Формат/Информация : Advanced Video Codec
Профиль формата : [email protected]
Параметр CABAC формата : Да
Параметр ReFrames формата : 4 кадра
Идентификатор кодека : V_MPEG4/ISO/AVC
Продолжительность : 1 ч. 23 м.
Битрейт : 3304 Кбит/сек
Ширина : 1280 пикселей
Высота : 544 пикселя
Соотношение сторон : 2,35:1
Соотношение сторон в оригинале : 2,35:1
Режим частоты кадров : Постоянный
Частота кадров : 23,976 кадра/сек
Цветовое пространство : YUV
Субдискретизация насыщенности : 4:2:0
Битовая глубина : 8 бит
Тип развёртки : Прогрессивная
Бит/(Пиксели*Кадры) : 0.198
Размер потока : 1,88 Гбайт (86%)
Библиотека кодирования : x264 core 129 r2230 1cffe9f
Настройки программы : cabac=1 / ref=3 / deblock=1:0:0 / analyse=0x3:0x113 / me=hex / subme=7 / psy=1 / psy_rd=1.00:0.00 / mixed_ref=1 / me_range=16 / chroma_me=1 / trellis=1 / 8x8dct=1 / cqm=0 / deadzone=21,11 / fast_pskip=1 / chroma_qp_offset=-2 / threads=6 / lookahead_threads=1 / sliced_threads=0 / nr=0 / decimate=1 / interlaced=0 / bluray_compat=0 / constrained_intra=0 / bframes=3 / b_pyramid=2 / b_adapt=1 / b_bias=0 / direct=1 / weightb=1 / open_gop=0 / weightp=2 / keyint=240 / keyint_min=23 / scenecut=40 / intra_refresh=0 / rc_lookahead=40 / rc=2pass / mbtree=1 / bitrate=3304 / ratetol=1.0 / qcomp=0.60 / qpmin=0 / qpmax=69 / qpstep=4 / cplxblur=20.0 / qblur=0.5 / ip_ratio=1.40 / aq=1:1.00
Язык : English
Default : Да
Forced : Нет
Аудио
Идентификатор : 2
Формат : AC-3
Формат/Информация : Audio Coding 3
Расширение режима : CM (complete main)
Параметр Endianness формата : Big
Идентификатор кодека : A_AC3
Продолжительность : 1 ч. 23 м.
Вид битрейта : Постоянный
Битрейт : 448 Кбит/сек
Каналы : 6 каналов
Расположение каналов : Front: L C R, Side: L R, LFE
Частота : 48,0 КГц
Битовая глубина : 16 бит
Метод сжатия : С потерями
Размер потока : 267 Мбайт (12%)
Default : Да
Forced : Нет
Скриншоты:
Время раздачи: 24/7

[Цитировать]

Топик был перенесен из форума Новинки кинопроката в форум Комедия
Henkok



Показать сообщения:    

Текущее время: 06-Дек 21:02

Часовой пояс: UTC + 3


Вы не можете начинать темы
Вы не можете отвечать на сообщения
Вы не можете редактировать свои сообщения
Вы не можете удалять свои сообщения
Вы не можете голосовать в опросах
Вы не можете прикреплять файлы к сообщениям
Вы не можете скачивать файлы

!ВНИМАНИЕ!
Сайт не предоставляет электронные версии произведений, а занимается лишь коллекционированием и каталогизацией ссылок, присылаемых и публикуемых на форуме нашими читателями. Если вы являетесь правообладателем какого-либо представленного материала и не желаете, чтобы ссылка на него находилась в нашем каталоге, свяжитесь с нами, и мы незамедлительно удалим ее. Файлы для обмена на трекере предоставлены пользователями сайта, и администрация не несет ответственности за их содержание. Просьба не заливать файлы, защищенные авторскими правами, а также файлы нелегального содержания!