[ Сегодня идет свободное скачивание без начисления Download ]


Статистика раздачи
Нет
 
   
 
Top  
 
 
- Фортнайт (2013) DVDRip- Русское название: Фортнайт
Год выпуска: 2013
Производство: Россия
Жанр: Драма, мелодрама
Перевод: Не требуется (Русский язык)
Субтитры: Отсутствуют
Дата российской премьеры: 20 января 2013
Режиссер: Руслан Гаврилов
Актеры: Александр Звонарёв, Алексей Гамора, Артур Ханмурзин, Алеся Чернышева, Мария Тверитнева, Инна Терёхина, Алёна Зновина, Юлия Корнеева, Карина Седых, Алек Яковлев, Дарья Русакова, Алёна Соловей, Геннадий Колин, Андрей Улько
Описание фильма:
В основе сюжета лежит три истории, объединённых одной темой — любовь, как монета, имеющая две стороны. Ревность, недоверие, мучение и корысть наперевес светлым чувствам, жертвенности и доброте.

Возраст 18+ - зрителям, достигшим 18 лет
Продолжительность: 01:30:41
Качество видео: DVDRip
Видео: DivX 5, 720x300, 2.40:1, ~932 kbps, Bit/Pixel: 0.180
Аудио: MP3 2.0, 128 kbps [Русский]

MediaInfo:

Общее
Полное имя : D:\nn-club\Фортнайт (2013) DVDRip.avi
Формат : AVI
Формат/Информация : Audio Video Interleave
Размер файла : 696 Мбайт
Продолжительность : 1 ч. 30 м.
Общий поток : 1072 Кбит/сек
Программа кодирования : Lavf51.12.1
Видео
Идентификатор : 0
Формат : MPEG-4 Visual
Профиль формата : [email protected]
Параметр BVOP формата : Нет
Параметр QPel формата : Нет
Параметр GMC формата : Без точки перехода
Параметр матрицы формата : Default (H.263)
Идентификатор кодека : DX50
Идентификатор кодека/Подсказка : DivX 5
Продолжительность : 1 ч. 30 м.
Битрейт : 932 Кбит/сек
Ширина : 720 пикселей
Высота : 300 пикселей
Соотношение сторон : 2,40:1
Частота кадров : 24,000 кадра/сек
Цветовое пространство : YUV
Субдискретизация насыщенности : 4:2:0
Битовая глубина : 8 бит
Тип развёртки : Прогрессивная
Метод сжатия : С потерями
Бит/(Пиксели*Кадры) : 0.180
Размер потока : 605 Мбайт (87%)
Библиотека кодирования : Lavc51.40.4
Аудио
Идентификатор : 1
Формат : MPEG Audio
Версия формата : Version 1
Профиль формата : Layer 3
Режим : Joint stereo
Расширение режима : MS Stereo
Идентификатор кодека : 55
Идентификатор кодека/Подсказка : MP3
Продолжительность : 1 ч. 30 м.
Вид битрейта : Постоянный
Битрейт : 128 Кбит/сек
Каналы : 2 канала
Частота : 44,1 КГц
Метод сжатия : С потерями
Размер потока : 83,0 Мбайт (12%)
Выравнивание : Соединение по промежуткам
Продолжительность промежутка : 26 мс. (0,63 видеокадр)
Время предзагрузки промежутка : 26 мс.
Скриншоты:

Время раздачи: с 09:00 до 02:00

[Цитировать]

Топик был перенесен из форума Новинки кинопроката в форум Драма
Henkok



Показать сообщения:    

Текущее время: 06-Дек 03:53

Часовой пояс: UTC + 3


Вы не можете начинать темы
Вы не можете отвечать на сообщения
Вы не можете редактировать свои сообщения
Вы не можете удалять свои сообщения
Вы не можете голосовать в опросах
Вы не можете прикреплять файлы к сообщениям
Вы не можете скачивать файлы

!ВНИМАНИЕ!
Сайт не предоставляет электронные версии произведений, а занимается лишь коллекционированием и каталогизацией ссылок, присылаемых и публикуемых на форуме нашими читателями. Если вы являетесь правообладателем какого-либо представленного материала и не желаете, чтобы ссылка на него находилась в нашем каталоге, свяжитесь с нами, и мы незамедлительно удалим ее. Файлы для обмена на трекере предоставлены пользователями сайта, и администрация не несет ответственности за их содержание. Просьба не заливать файлы, защищенные авторскими правами, а также файлы нелегального содержания!