[ Сегодня идет свободное скачивание без начисления Download ]


Статистика раздачи
Нет
 
   
 
Top  
 
 
-День учителя (2012) DVDRip- Русское название: День учителя
Год выпуска: 2012
Производство: Россия / Новые люди
Жанр: Драма
Перевод: Не требуется [Русский]
Субтитры: Отсутствуют
Дата российской премьеры: 29 ноября 2012, «Новые Люди»
Дата выхода DVD релиза: 21 января 2013, «Новый Диск»
Режиссер: Сергей Мокрицкий
Актеры: Анатолий Кот, Светлана Немоляева, Ирина Рахманова, Людмила Титова, Андрей Бильжо, Алла Юганова
Описание фильма:
Один день из жизни типичного персонажа российской истории, «маленького человека» — учителя русского языка и литературы в школе. Интеллигент и его проблемы в начале XXI века. Один день из жизни страны, которая когда-то любила Есенина. О том, что у неё еще есть надежда…

Продолжительность: 01:18:22
Качество видео: DVDRip [MysTeRy]
Видеокодек: MPEG-4 AVC/H.264
Битрейт видео: ~2215 Кбит/сек
Размер кадра: 720 x 576@1024 x 576
Аудиокодек: AC3 5.1
Битрейт аудио: 448 Кбит/сек

MediaInfo:

Общее
Уникальный идентификатор         : 199387726094198673925008284088967177113 (0x9600ADE18BCA8F2EB874FCAF11212399)
Полное имя                       : H:\День.учителя.2012.O.x264.DVDRip.mkv
Формат                           : Matroska
Версия формата                   : Version 4 / Version 2
Размер файла                     : 1,46 Гбайт
Продолжительность                : 1 ч. 18 м.
Общий поток                      : 2664 Кбит/сек
Название фильма                  : День.учителя.2012.O.x264.DVDRip-MysTeRy
Дата кодирования                 : UTC 2013-01-23 16:20:23
Программа кодирования            : mkvmerge v6.0.0 ('Coming Up For Air') built on Jan 20 2013 09:52:00
Библиотека кодирования           : libebml v1.3.0 + libmatroska v1.4.0
Видео
Идентификатор                    : 1
Формат                           : AVC
Формат/Информация                : Advanced Video Codec
Профиль формата                  : [url=mailto:High@L4.1]High@L4.1[/url]
Параметр CABAC формата           : Да
Параметр ReFrames формата        : 12 кадров
Идентификатор кодека             : V_MPEG4/ISO/AVC
Продолжительность                : 1 ч. 18 м.
Битрейт                          : 2215 Кбит/сек
Ширина                           : 720 пикселей
Высота                           : 576 пикселей
Соотношение сторон               : 16:9
Частота кадров                   : 25,000 кадров/сек
Стандарт вещания                 : PAL
Цветовое пространство            : YUV
Субдискретизация насыщенности    : 4:2:0
Битовая глубина                  : 8 бит
Тип развёртки                    : Прогрессивная
Бит/(Пиксели*Кадры)              : 0.214
Размер потока                    : 1,18 Гбайт (81%)
Заголовок                        : ENCODER........: MysTeRy
Библиотека кодирования           : x264 core 125 r2208 d9d2288
Настройки программы              : cabac=1 / ref=12 / deblock=1:-2:-1 / analyse=0x3:0x113 / me=umh / subme=10 / psy=1 / psy_rd=1.00:0.10 / mixed_ref=1 / me_range=24 / chroma_me=1 / trellis=2 / 8x8dct=1 / cqm=0 / deadzone=21,11 / fast_pskip=0 / chroma_qp_offset=-3 / threads=12 / lookahead_threads=2 / sliced_threads=0 / nr=0 / decimate=0 / interlaced=0 / bluray_compat=0 / constrained_intra=0 / bframes=8 / b_pyramid=2 / b_adapt=2 / b_bias=0 / direct=3 / weightb=1 / open_gop=0 / weightp=2 / keyint=250 / keyint_min=25 / scenecut=40 / intra_refresh=0 / rc_lookahead=60 / rc=2pass / mbtree=0 / bitrate=2215 / ratetol=1.0 / qcomp=0.70 / qpmin=10 / qpmax=69 / qpstep=4 / cplxblur=20.0 / qblur=0.5 / vbv_maxrate=50000 / vbv_bufsize=61400 / nal_hrd=none / ip_ratio=1.40 / pb_ratio=1.30 / aq=1:0.80
Язык                             : Russian
Default                          : Да
Forced                           : Нет
Основные цвета                   : BT.709-5, BT.1361, IEC 61966-2-4, SMPTE RP177
Характеристики трансфера         : BT.709-5, BT.1361
Коэффициенты матрицы             : BT.709-5, BT.1361, IEC 61966-2-4 709, SMPTE RP177
Аудио
Идентификатор                    : 2
Формат                           : AC-3
Формат/Информация                : Audio Coding 3
Расширение режима                : CM (complete main)
Идентификатор кодека             : A_AC3
Продолжительность                : 1 ч. 18 м.
Вид битрейта                     : Постоянный
Битрейт                          : 448 Кбит/сек
Каналы                           : 6 каналов
Расположение каналов             : Front: L C R, Side: L R, LFE
Частота                          : 48,0 КГц
Битовая глубина                  : 16 бит
Метод сжатия                     : С потерями
Размер потока                    : 251 Мбайт (17%)
Заголовок                        : Original
Язык                             : Russian
Default                          : Да
Forced                           : Нет
Меню
00:00:00.000                     : en:Chapter 1
00:06:09.208                     : en:Chapter 2
00:15:32.042                     : en:Chapter 3
00:24:21.583                     : en:Chapter 4
00:32:29.917                     : en:Chapter 5
00:40:23.750                     : en:Chapter 6
00:52:29.917                     : en:Chapter 7
00:59:16.125                     : en:Chapter 8
01:08:09.919                     : en:Chapter 9
01:15:23.352                     : en:Chapter 10

x264:

x264 [info]: frame I:772   Avg QP:16.96  size: 43546
x264 [info]: frame P:24969 Avg QP:18.90  size: 19156
x264 [info]: frame B:91823 Avg QP:19.41  size:  8598
x264 [info]: consecutive B-frames:  1.5%  1.8% 14.7% 10.0%  7.7% 58.9%  3.1%  0.9%  1.4%
Скриншоты:



Время раздачи: 16.30-23.00 до 5 скачавших

[Цитировать]

Топик был перенесен из форума Новинки кинопроката в форум Драма


EnergyStar



Показать сообщения:    

Текущее время: 09-Дек 22:21

Часовой пояс: UTC + 3


Вы не можете начинать темы
Вы не можете отвечать на сообщения
Вы не можете редактировать свои сообщения
Вы не можете удалять свои сообщения
Вы не можете голосовать в опросах
Вы не можете прикреплять файлы к сообщениям
Вы не можете скачивать файлы

!ВНИМАНИЕ!
Сайт не предоставляет электронные версии произведений, а занимается лишь коллекционированием и каталогизацией ссылок, присылаемых и публикуемых на форуме нашими читателями. Если вы являетесь правообладателем какого-либо представленного материала и не желаете, чтобы ссылка на него находилась в нашем каталоге, свяжитесь с нами, и мы незамедлительно удалим ее. Файлы для обмена на трекере предоставлены пользователями сайта, и администрация не несет ответственности за их содержание. Просьба не заливать файлы, защищенные авторскими правами, а также файлы нелегального содержания!