[ Сегодня идет свободное скачивание без начисления Download ]


Статистика раздачи
Нет
 
   
 
 
 
--Вий-- Год выпуска: 1967
Страна: СССР
Жанр: ужасы, фэнтези, драма
Продолжительность: 01:16:51--Перевод: Не требуется
Cубтитры: нет
Оригинальная аудиодорожка: русский--Режиссер: Георгий Кропачев, Константин Ершов--В ролях: Леонид Куравлёв, Наталья Варлей, Алексей Глазырин, Николай Кутузов, Вадим Захарченко, Петр Вескляров, Владимир Сальников, Дмитрий Капка, Степан Шкурат, Георгий Сочевко, Николай Яковченко, Николай Панасьев, Борислав Брондуков, Николай Юдин, Николай Степанов, Борис Веселов, Маргарита Криницына, Любовь Калюжная, Александра Денисова, Виктор Колпаков, Александр Лебедев, Михаил Крамар, Дмитрий Орловский, Анна Павлова.--Описание: Студент-философ Хома Брут должен провести несколько ночей у гроба умершей панночки в старой церквушке в далекой деревне. Сможет ли он побороть свой страх, или ему придется столкнуться с нечистой силой?-- --Качество: BDRip
Формат: MP4
Видео кодек: H.264
Аудио кодек: AAC
Видео: 976x720p, 3033 kbps, 23.976 fps
Аудио: [Russian] 2ch, 48 kHz, 128 kbps--

Дополнительная информация

[*]Фильм снят по одноименной повести Николая Гоголя.
[*]Первоначально на роль Хомы Брута планировался Михаил Кокшенов.
[*]Идея экранизации «Вия» принадлежит известному советскому режиссёру, на тот момент директору кинокомпании Мосфильм, Ивану Пырьеву. Лишь по причине острой нехватки времени он предложил снять картину двум учащимся Высших режиссерских курсов Союза кинематографистов СССР Георгию Кропачеву и Константину Ершову.
[*]Съемки фильм производились в Богородчанском районе Ивано-Франковской области (ныне Украина). Однако отснятый на натуре материал разочаровал руководство Мосфильма, оказавшись «слишком реалистическим». Так к работе было решено привлечь известного режиссёра кино-сказочника Александра Птушко. В результате, много материала отснятого Ершовым и Кропачевым было вырезано, ряд идей так и остались невоплощёнными. Изменён был и облик главного чудовища фильма — Вия.
[*]Александра Завьялова изначально утвержденная на роль Панночки, сразу после начала съемок тяжело заболела. В итоге будущий муж актрисы, режиссер Резо Эсадзе требовал, чтоб она отказалась от роли.
[*]«Полет» Ведьмы на Хоме был снят в павильоне. Шест, замаскированный под метлу с горизонтальной планкой, на которой сидел Николай Кутузов, крепился на небольшой высоте. Исполнитель роли Хомы Леонид Куравлёв повисал также на этой планке и перебирал в воздухе ногами, имитируя бег.
[*]В реквизите фильма было заготовлено три гроба Панночки. Один настоящий, для съемок лежащей в нем Натальи Варлей. Два других — для сцен полетов по церкви: небольшой и закрытый и открытый, со специальной стойкой, снабженной поясом монтажных рабочих удерживавшим актрису от падения, закрепленный в подвешенном состоянии на шести металлических тросах.
[*]Во время съемок полета, Наталья Варлей однажды выпала из гроба. Только реакция Леонида Куравлёва, успевшего подхватить актрису, спасла ее от травм. Тем не менее этот случай породил множественные слухи о смерти Варлей.
[*]По задумке Георгия Кропачева сам Вий должен был выглядеть более антропоморфно — гигантским немощным стариком, которого поддерживали всевозможные инфернальные существа.
[*]В фильме задействованы 50 ворон (пойманых в районе студии) и 9 дрессированных черных кошек.
[*]Петух, кукарекающий в фильме ранее был задействован Птушко при съемках фильма «Сказка о царе Салтане».
[*]Костюм Вия был очень тяжелый и никто из актеров не мог в нем нормально двигаться, поэтому эту роль пришлось сыграть специально приглашенному штангисту.
[*]Когда во время одной из финальных сцен героиня Натальи Варлей трясется от злости, актриса стоит на специальной вибрирующей платформе.

Информация по видеофайлу

Общее
Полное имя                               : вий.1967.mp4
Формат                                   : MPEG-4
Профиль формата                          : Base Media
Идентификатор кодека                     : isom
Размер файла                             : 1,70 Гбайт
Продолжительность                        : 1 ч. 16 м.
Режим общего битрейта                    : Переменный
Общий поток                              : 3168 Кбит/сек
Название фильма                          : вий (1967) японский трансфер
Тип содержимого                          : Movie
Дата кодирования                         : UTC 2016-09-12 03:40:34
Дата пометки                             : UTC 2016-09-12 03:41:38
Программа кодирования                    : MkvToMp4 [www.mkvtomp4.ru] version: 0.224 (x64)
Видео
Идентификатор                            : 1
Формат                                   : AVC
Формат/Информация                        : Advanced Video Codec
Профиль формата                          : High@L4.1
Параметр CABAC формата                   : Да
Параметр ReFrames формата                : 11 кадров
Идентификатор кодека                     : avc1
Идентификатор кодека/Информация          : Advanced Video Coding
Продолжительность                        : 1 ч. 16 м.
Битрейт                                  : 3033 Кбит/сек
Максимальный битрейт                     : 10,2 Мбит/сек
Ширина                                   : 976 пикселей
Высота                                   : 720 пикселей
Соотношение сторон                       : 4:3
Режим частоты кадров                     : Постоянный
Частота кадров                           : 23,976 кадра/сек
Цветовое пространство                    : YUV
Субдискретизация насыщенности            : 4:2:0
Битовая глубина                          : 8 бит
Тип развёртки                            : Прогрессивная
Бит/(Пиксели*Кадры)                      : 0.180
Размер потока                            : 1,63 Гбайт (96%)
Библиотека кодирования                   : x264 core 146 r2538 121396c
Настройки программы                      : cabac=1 / ref=11 / deblock=1:-1:-1 / analyse=0x3:0x133 / me=umh / subme=11 / psy=1 / psy_rd=1.00:0.15 / mixed_ref=1 / me_range=32 / chroma_me=1 / trellis=2 / 8x8dct=1 / cqm=0 / deadzone=21,11 / fast_pskip=0 / chroma_qp_offset=-3 / threads=6 / lookahead_threads=1 / sliced_threads=0 / nr=0 / decimate=0 / interlaced=0 / bluray_compat=0 / constrained_intra=0 / bframes=10 / b_pyramid=2 / b_adapt=2 / b_bias=0 / direct=3 / weightb=1 / open_gop=0 / weightp=2 / keyint=250 / keyint_min=23 / scenecut=40 / intra_refresh=0 / rc=2pass / mbtree=0 / bitrate=3033 / ratetol=1.0 / qcomp=0.80 / qpmin=0 / qpmax=69 / qpstep=4 / cplxblur=20.0 / qblur=0.5 / ip_ratio=1.40 / pb_ratio=1.30 / aq=2:1.00
Язык                                     : English
Дата кодирования                         : UTC 2016-09-12 03:40:34
Дата пометки                             : UTC 2016-09-12 03:40:53
Цветовой диапазон                        : Limited
Основные цвета                           : BT.709
Характеристики трансфера                 : BT.709
Коэффициенты матрицы                     : BT.709
Аудио
Идентификатор                            : 2
Формат                                   : AAC
Формат/Информация                        : Advanced Audio Codec
Профиль формата                          : LC
Идентификатор кодека                     : 40
Продолжительность                        : 1 ч. 16 м.
Вид битрейта                             : Переменный
Битрейт                                  : 127 Кбит/сек
Максимальный битрейт                     : 135 Кбит/сек
Каналы                                   : 2 канала
Расположение каналов                     : Front: L R
Частота                                  : 48,0 КГц
Метод сжатия                             : С потерями
Размер потока                            : 69,9 Мбайт (4%)
Язык                                     : Russian
Дата кодирования                         : UTC 2016-09-12 03:40:50
Дата пометки                             : UTC 2016-09-12 03:40:53

Скриншоты

--

[Цитировать]



Показать сообщения:    

Текущее время: 02-Дек 21:06

Часовой пояс: UTC + 3


Вы не можете начинать темы
Вы не можете отвечать на сообщения
Вы не можете редактировать свои сообщения
Вы не можете удалять свои сообщения
Вы не можете голосовать в опросах
Вы не можете прикреплять файлы к сообщениям
Вы не можете скачивать файлы

!ВНИМАНИЕ!
Сайт не предоставляет электронные версии произведений, а занимается лишь коллекционированием и каталогизацией ссылок, присылаемых и публикуемых на форуме нашими читателями. Если вы являетесь правообладателем какого-либо представленного материала и не желаете, чтобы ссылка на него находилась в нашем каталоге, свяжитесь с нами, и мы незамедлительно удалим ее. Файлы для обмена на трекере предоставлены пользователями сайта, и администрация не несет ответственности за их содержание. Просьба не заливать файлы, защищенные авторскими правами, а также файлы нелегального содержания!