[ Сегодня идет свободное скачивание без начисления Download ]


Статистика раздачи
Скачал: [ 2 ]
 
   
 
Top  
 
 
Информация о фильме
Название: Ловчий смерти
Оригинальное название: Deathstalker
Год выпуска: 1983
Страна: Аргентина, США
Жанр: Фэнтези, приключения
Продолжительность: 01:20:00
Перевод: Профессиональный (двухголосый закадровый) Ракурс
Перевод: Авторский (одноголосый закадровый) Алексей Михалёв
Cубтитры: Русские, английские
Режиссер: Джеймс Сбарделлати
В ролях: Рик Хилл, Барби Бентон, Ричард Брукер, Лана Кларксон, Виктор Бо, Бернард Эрхард, Августо Ларрета, Вероника Льянас, Маркос Воински, Адриан Де Пьеро...
Описание: В Дальней Земле отгороженной от мира кольцом гор лежит прекрасная страна, где властвуют могучие короли. Спокойствие и благоденствие королевств Дальней Земли не дают покоя злому волшебнику Манкару… Он похищает дочь короля Тулака принцессу Кодиллу. Великий воин Дальней Земли Ловчий смерти отправляется на поиски трех волшебных амулетов. Только владея амулетами, он сможет противостоять могущественным чарам Манкара и спасти принцессу.

Файл
Качество: BDRip 1080p
Формат: MKV
Видео кодек: H264
Аудио кодек: AC3
Видео: MPEG4 Video (H264), 1920x1056, 23.976fps, 14.0 Mbps
Аудио: Dolby AC3, 48000 Hz, 2ch, 192 kbps - Ракурс
Аудио: Dolby AC3, 48000 Hz, 2ch, 192 kbps - Алексей Михалёв
Аудио: Dolby AC3, 48000 Hz, 2ch, 448 kbps
Формат субтитров: softsub (SRT)
Сэмпл

MediaInfo:

General
Unique ID : 231511188849190559271150360119697668007 (0xAE2B6EE011E11DF39D5F65C2AB32F7A7)
Complete name : F:DVDRip1983 Ловчий смерти.mkv
Format : Matroska
Format version : Version 4 / Version 2
File size : 8.28 GiB
Duration : 1 h 19 min
Overall bit rate : 14.8 Mb/s
Movie name : 1983 Ловчий смерти / likko
Encoded date : UTC 2016-09-13 10:37:24
Writing application : mkvmerge v8.3.0 ('Over the Horizon') 64bit
Writing library : libebml v1.3.1 + libmatroska v1.4.2
Video
ID : 1
Format : AVC
Format/Info : Advanced Video Codec
Format profile : High@L4.1
Format settings, CABAC : Yes
Format settings, ReFrames : 4 frames
Codec ID : V_MPEG4/ISO/AVC
Duration : 1 h 19 min
Bit rate : 14.0 Mb/s
Width : 1 920 pixels
Height : 1 056 pixels
Display aspect ratio : 16:9
Frame rate mode : Constant
Frame rate : 23.976 (24000/1001) FPS
Color space : YUV
Chroma subsampling : 4:2:0
Bit depth : 8 bits
Scan type : Progressive
Bits/(Pixel*Frame) : 0.288
Stream size : 7.82 GiB (94%)
Title : 1983 Ловчий смерти
Writing library : x264 core 146 r2538 121396c
Encoding settings : cabac=1 / ref=4 / deblock=1:-1:-1 / analyse=0x3:0x133 / me=umh / subme=11 / psy=1 / psy_rd=1.07:0.23 / mixed_ref=1 / me_range=32 / chroma_me=1 / trellis=2 / 8x8dct=1 / cqm=0 / deadzone=21,11 / fast_pskip=0 / chroma_qp_offset=-3 / threads=12 / lookahead_threads=3 / sliced_threads=0 / nr=0 / decimate=1 / interlaced=0 / bluray_compat=0 / constrained_intra=0 / bframes=12 / b_pyramid=2 / b_adapt=2 / b_bias=0 / direct=3 / weightb=1 / open_gop=0 / weightp=2 / keyint=250 / keyint_min=23 / scenecut=40 / intra_refresh=0 / rc=2pass / mbtree=0 / bitrate=14000 / ratetol=1.0 / qcomp=0.60 / qpmin=0 / qpmax=69 / qpstep=4 / cplxblur=20.0 / qblur=0.5 / ip_ratio=1.40 / pb_ratio=1.30 / aq=2:1.00
Default : Yes
Forced : No
Audio #1
ID : 2
Format : AC-3
Format/Info : Audio Coding 3
Mode extension : CM (complete main)
Format settings, Endianness : Big
Codec ID : A_AC3
Duration : 1 h 19 min
Bit rate mode : Constant
Bit rate : 192 kb/s
Channel(s) : 2 channels
Channel positions : Front: L R
Sampling rate : 48.0 kHz
Frame rate : 31.250 FPS (1536 spf)
Compression mode : Lossy
Stream size : 110 MiB (1%)
Title : Двухголосый, Ракурс
Language : Russian
Default : Yes
Forced : No
Audio #2
ID : 3
Format : AC-3
Format/Info : Audio Coding 3
Mode extension : CM (complete main)
Format settings, Endianness : Big
Codec ID : A_AC3
Duration : 1 h 19 min
Bit rate mode : Constant
Bit rate : 192 kb/s
Channel(s) : 2 channels
Channel positions : Front: L R
Sampling rate : 48.0 kHz
Frame rate : 31.250 FPS (1536 spf)
Compression mode : Lossy
Stream size : 110 MiB (1%)
Title : Одноголосый, А. Михалёв
Language : Russian
Default : No
Forced : No
Audio #3
ID : 4
Format : AC-3
Format/Info : Audio Coding 3
Mode extension : CM (complete main)
Format settings, Endianness : Big
Codec ID : A_AC3
Duration : 1 h 19 min
Bit rate mode : Constant
Bit rate : 448 kb/s
Channel(s) : 2 channels
Channel positions : Front: L R
Sampling rate : 48.0 kHz
Frame rate : 31.250 FPS (1536 spf)
Compression mode : Lossy
Stream size : 256 MiB (3%)
Language : English
Default : No
Forced : No
Text #1
ID : 5
Format : UTF-8
Codec ID : S_TEXT/UTF8
Codec ID/Info : UTF-8 Plain Text
Duration : 1 h 13 min
Bit rate : 30 b/s
Count of elements : 306
Stream size : 16.5 KiB (0%)
Language : Russian
Default : No
Forced : No
Text #2
ID : 6
Format : UTF-8
Codec ID : S_TEXT/UTF8
Codec ID/Info : UTF-8 Plain Text
Duration : 1 h 15 min
Bit rate : 27 b/s
Count of elements : 783
Stream size : 15.3 KiB (0%)
Language : English
Default : No
Forced : No
Menu
00:00:00.000 : en:Chapter 01
00:07:32.076 : en:Chapter 02
00:14:04.176 : en:Chapter 03
00:20:10.292 : en:Chapter 04
00:27:07.208 : en:Chapter 05
00:31:41.524 : en:Chapter 06
00:36:56.422 : en:Chapter 07
00:42:14.865 : en:Chapter 08
00:48:44.504 : en:Chapter 09
00:56:20.960 : en:Chapter 10
01:02:57.023 : en:Chapter 11
01:10:56.502 : en:Chapter 12
01:19:57.209 : en:Chapter 13

Скриншоты:



[Цитировать]

Топик был перенесен из форума Зарубежное кино (HD Video) в форум Классика зарубежного кино (HD Video)
Scorpio



Показать сообщения:    

Текущее время: 07-Дек 17:34

Часовой пояс: UTC + 3


Вы не можете начинать темы
Вы не можете отвечать на сообщения
Вы не можете редактировать свои сообщения
Вы не можете удалять свои сообщения
Вы не можете голосовать в опросах
Вы не можете прикреплять файлы к сообщениям
Вы не можете скачивать файлы

!ВНИМАНИЕ!
Сайт не предоставляет электронные версии произведений, а занимается лишь коллекционированием и каталогизацией ссылок, присылаемых и публикуемых на форуме нашими читателями. Если вы являетесь правообладателем какого-либо представленного материала и не желаете, чтобы ссылка на него находилась в нашем каталоге, свяжитесь с нами, и мы незамедлительно удалим ее. Файлы для обмена на трекере предоставлены пользователями сайта, и администрация не несет ответственности за их содержание. Просьба не заливать файлы, защищенные авторскими правами, а также файлы нелегального содержания!