[ Сегодня идет свободное скачивание без начисления Download ]


Статистика раздачи
Нет
 
   
 
Top  
 
 
-Всё просто (2012) DVDRip
«Из гламура в трэш за 6 дней»
- Оригинальное название: Всё просто
Год выпуска: 2012
Производство: ВайТ Медиа [Россия]
Жанр: Мелодрама, комедия
Перевод: Не требуется [Русский язык]
Субтитры: Отсутствуют
Режиссер: Соня Карпунина
Актеры: Соня Карпунина, Агния Кузнецова, Клим Шипенко, Константин Крюков, Александр Яценко, Артем Быстров, Любовь Толкалина, Михаил Бабичев, Александр Самойленко, Донатас Грудович
Описание фильма:
Надя из Питера, учится в Лондоне. Родители создают возможность жить без особых забот и хлопот. Молодой человек Женя работает в Москве в крупной компании и подает большие надежды. Одно расстройство — из-за перспективной работы Женя переехал в Москву, а Надя осталась в Лондоне. 3000 километров — слишком далеко. И Надя решает сделать Жене сюрприз — приехать в гости без предупреждения. В итоге, сюрпризы ожидают не только Женю, но и Надю.
Дата российской премьеры: 6 декабря 2012, «Парадиз»
Дата выхода DVD релиза: 22 января 2013, «Парадиз Медиа»

Возраст 16+ - зрителям, достигшим 16 лет
Продолжительность: 01:34:41
Качество видео: DVDRip
Видео: XviD, 720x304, ~1798 kbps, Bit/Pixel: 0.329
Аудио: AC3 5.1, 384 kbps [Русский]

MediaInfo...

Полное имя : D:\Всё.просто.(2012).DVDRip.avi
Формат : AVI
Формат/Информация : Audio Video Interleave
Размер файла : 1,45 Гбайт
Продолжительность : 1 ч. 34 м.
Общий поток : 2191 Кбит/сек
Программа кодирования : VirtualDubMod 1.5.10.2 (build 2540/release)
Видео
Идентификатор : 0
Формат : MPEG-4 Visual
Профиль формата : Advanced [email protected]
Параметр BVOP формата : 1
Параметр QPel формата : Нет
Параметр GMC формата : Без точки перехода
Параметр матрицы формата : Выборочная
Идентификатор кодека : XVID
Идентификатор кодека/Подсказка : XviD
Продолжительность : 1 ч. 34 м.
Битрейт : 1798 Кбит/сек
Ширина : 720 пикселей
Высота : 304 пикселя
Соотношение сторон : 2,35:1
Частота кадров : 25,000 кадров/сек
Цветовое пространство : YUV
Субдискретизация насыщенности : 4:2:0
Битовая глубина : 8 бит
Тип развёртки : Прогрессивная
Метод сжатия : С потерями
Бит/(Пиксели*Кадры) : 0.329
Размер потока : 1,19 Гбайт (82%)
Библиотека кодирования : XviD 1.2.1 (UTC 2008-12-04)
Аудио
Идентификатор : 1
Формат : AC-3
Формат/Информация : Audio Coding 3
Расширение режима : CM (complete main)
Параметр Endianness формата : Big
Идентификатор кодека : 2000
Продолжительность : 1 ч. 34 м.
Вид битрейта : Постоянный
Битрейт : 384 Кбит/сек
Каналы : 6 каналов
Расположение каналов : Front: L C R, Side: L R, LFE
Частота : 48,0 КГц
Битовая глубина : 16 бит
Метод сжатия : С потерями
Задержка видео : 1 с. 600 мс.
Размер потока : 260 Мбайт (18%)
Выравнивание : Разделение по промежуткам
Продолжительность промежутка : 40 мс. (1,00 видеокадр)
Время предзагрузки промежутка : 500 мс.
Скриншоты:


Время раздачи: 24/7 (до 10 скачавших)

[Цитировать]



Показать сообщения:    

Текущее время: 06-Дек 19:02

Часовой пояс: UTC + 3


Вы не можете начинать темы
Вы не можете отвечать на сообщения
Вы не можете редактировать свои сообщения
Вы не можете удалять свои сообщения
Вы не можете голосовать в опросах
Вы не можете прикреплять файлы к сообщениям
Вы не можете скачивать файлы

!ВНИМАНИЕ!
Сайт не предоставляет электронные версии произведений, а занимается лишь коллекционированием и каталогизацией ссылок, присылаемых и публикуемых на форуме нашими читателями. Если вы являетесь правообладателем какого-либо представленного материала и не желаете, чтобы ссылка на него находилась в нашем каталоге, свяжитесь с нами, и мы незамедлительно удалим ее. Файлы для обмена на трекере предоставлены пользователями сайта, и администрация не несет ответственности за их содержание. Просьба не заливать файлы, защищенные авторскими правами, а также файлы нелегального содержания!