[ Сегодня идет свободное скачивание без начисления Download ]


Статистика раздачи
Нет
 
   
 
Top  
 
 
-1812: Уланская баллада (2012) BDRip- Русское название: 1812: Уланская баллада
Год выпуска: 2012
Производство: Россия / Централ Партнершип
Жанр: Приключения
Перевод: Не требуется (русский) [лицензия]
Дата мировой премьеры: 1 ноября 2012
Дата российской премьеры: 1 ноября 2012, «Централ Партнершип»
Дата выхода DVD релиза: 20 декабря 2012, «CP Дистрибуция»
Дата выхода Blu-Ray релиза: 17 января 2013, «CD Land»
Режиссер: Олег Фесенко
Актеры: Сергей Безруков, Антон Соколов, Анна Чиповская, Анатолий Белый, Станислав Дужников, Валерий Николаев, Алексей Макаров, Борис Клюев, Эрик Фратичелли, Гедиминас Адомайтис
Описание фильма:
1812 год. Накануне решающей битвы при Бородино тайный агент Наполеона похищает план сражения. Об этом становится известно Кутузову, и он посылает на перехват своих лучших улан. Путь их лежит в Польшу, где разворачивается бурный роман Наполеона с графиней Валевской…- -Продолжительность: 01:38:44
Качество видео: BDRip
Видеокодек: MPEG-4 AVC/H.264
Битрейт видео: ~2714 kb/s
Размер кадра: 1024x576
Аудиокодек: AC3 5.1
Битрейт аудио: 448 kb/s
Сэмпл: Скачать

MediaInfo:

Общее
Уникальный идентификатор                 : 237978024396994920343153966722970993451 (0xB308E67BF9F19F678124B6948DE6C32B)
Полное имя                               : E:\Загрузка\1812.Ulanskaja.ballada.2012.x264.BDRip.(AVC).mkv
Формат                                   : Matroska
Версия формата                           : Version 2
Размер файла                             : 2,18 Гбайт
Продолжительность                        : 1 ч. 38 м.
Общий поток                              : 3157 Кбит/сек
Название фильма                          : 1812: Ulanskaya ballada (2012)
Дата кодирования                         : UTC 2013-01-15 19:55:37
Программа кодирования                    : mkvmerge v3.4.0 ('Rapunzel') сборка от May 15 2010 09:38:20
Библиотека кодирования                   : libebml v0.8.0 + libmatroska v0.9.0
Видео
Идентификатор                            : 1
Формат                                   : AVC
Формат/Информация                        : Advanced Video Codec
Профиль формата                          : [url=mailto:[email protected]][email protected][/url]
Параметр CABAC формата                   : Да
Параметр ReFrames формата                : 10 кадров
Идентификатор кодека                     : V_MPEG4/ISO/AVC
Продолжительность                        : 1 ч. 38 м.
Битрейт                                  : 2714 Кбит/сек
Ширина                                   : 1024 пикселя
Высота                                   : 576 пикселей
Соотношение сторон                       : 16:9
Частота кадров                           : 24,000 кадра/сек
Цветовое пространство                    : YUV
Субдискретизация насыщенности            : 4:2:0
Битовая глубина                          : 8 бит
Тип развёртки                            : Прогрессивная
Бит/(Пиксели*Кадры)                      : 0.192
Размер потока                            : 1,83 Гбайт (84%)
Заголовок                                : 1812: Ulanskaya ballada (2012)
Библиотека кодирования                   : x264 core 129 r2245 bc13772
Настройки программы                      : cabac=1 / ref=10 / deblock=1:-3:-3 / analyse=0x3:0x113 / me=umh / subme=11 / psy=1 / psy_rd=1.10:0.10 / mixed_ref=1 / me_range=48 / chroma_me=1 / trellis=2 / 8x8dct=1 / cqm=0 / deadzone=21,11 / fast_pskip=0 / chroma_qp_offset=-3 / threads=16 / lookahead_threads=2 / sliced_threads=0 / nr=0 / decimate=0 / interlaced=0 / bluray_compat=0 / constrained_intra=0 / bframes=12 / b_pyramid=2 / b_adapt=2 / b_bias=0 / direct=3 / weightb=1 / open_gop=0 / weightp=2 / keyint=240 / keyint_min=24 / scenecut=40 / intra_refresh=0 / rc_lookahead=40 / rc=2pass / mbtree=0 / bitrate=2714 / ratetol=1.0 / qcomp=0.70 / qpmin=0 / qpmax=69 / qpstep=4 / cplxblur=20.0 / qblur=0.5 / vbv_maxrate=50000 / vbv_bufsize=62500 / nal_hrd=none / ip_ratio=1.40 / pb_ratio=1.30 / aq=2:0.90
Язык                                     : Russian
Default                                  : Да
Forced                                   : Нет
Основные цвета                           : BT.709-5, BT.1361, IEC 61966-2-4, SMPTE RP177
Характеристики трансфера                 : BT.709-5, BT.1361
Коэффициенты матрицы                     : BT.709-5, BT.1361, IEC 61966-2-4 709, SMPTE RP177
Аудио
Идентификатор                            : 2
Формат                                   : AC-3
Формат/Информация                        : Audio Coding 3
Расширение режима                        : CM (complete main)
Параметр Endianness формата              : Big
Идентификатор кодека                     : A_AC3
Продолжительность                        : 1 ч. 38 м.
Вид битрейта                             : Постоянный
Битрейт                                  : 448 Кбит/сек
Каналы                                   : 6 каналов
Расположение каналов                     : Front: L C R, Side: L R, LFE
Частота                                  : 48,0 КГц
Битовая глубина                          : 16 бит
Метод сжатия                             : С потерями
Размер потока                            : 316 Мбайт (14%)
Заголовок                                : Original
Язык                                     : Russian
Default                                  : Да
Forced                                   : Нет
Меню
00:00:00.000                             : en:Chapter 01
00:07:50.500                             : en:Chapter 02
00:16:11.000                             : en:Chapter 03
00:20:41.875                             : en:Chapter 04
00:28:39.000                             : en:Chapter 05
00:36:24.708                             : en:Chapter 06
00:45:07.541                             : en:Chapter 07
00:57:15.625                             : en:Chapter 08
01:04:44.250                             : en:Chapter 09
01:15:34.916                             : en:Chapter 10
01:26:35.125                             : en:Chapter 11
01:35:14.916                             : en:Chapter 12
01:38:44.166                             : en:Chapter 13
Скриншоты:

-Приятного просмотра
и не забываем говорить СПАСИБО...
-Время раздачи: 24/7
до 15 скачавших..

[Цитировать]

Топик был перенесен из форума Новинки кинопроката в форум Приключения / Исторический
Henkok



Показать сообщения:    

Текущее время: 04-Дек 07:03

Часовой пояс: UTC + 3


Вы не можете начинать темы
Вы не можете отвечать на сообщения
Вы не можете редактировать свои сообщения
Вы не можете удалять свои сообщения
Вы не можете голосовать в опросах
Вы не можете прикреплять файлы к сообщениям
Вы не можете скачивать файлы

!ВНИМАНИЕ!
Сайт не предоставляет электронные версии произведений, а занимается лишь коллекционированием и каталогизацией ссылок, присылаемых и публикуемых на форуме нашими читателями. Если вы являетесь правообладателем какого-либо представленного материала и не желаете, чтобы ссылка на него находилась в нашем каталоге, свяжитесь с нами, и мы незамедлительно удалим ее. Файлы для обмена на трекере предоставлены пользователями сайта, и администрация не несет ответственности за их содержание. Просьба не заливать файлы, защищенные авторскими правами, а также файлы нелегального содержания!