[ Сегодня идет свободное скачивание без начисления Download ]


Статистика раздачи
Нет
 
   
 
Top  
 
 
Самый крутой день / Der geilste Tag (2016) BDRip-AVC Информация о фильме
Название: Самый крутой день
Оригинальное название: Der geilste Tag
Год выпуска: 2016
Страна: Германия
Жанр: комедия, драма-Перевод: Авторский (одноголосый) | Антон Карповский
Продолжительность: 01:53:23-Режиссер: Флориан Давид Фиц
В ролях: Маттиас Швайгхёфер (Andi), Флориан Давид Фиц (Benno), Райнер Бок (Dr. Wüst), Lars Doppler (Pilot), Andreas Dubois (Rental car dealer), Jackie Hill (Waitress in Café), Александра Мария Лара (Mona), Frederic Linkemann (Polizist Frederic), Robert Nickisch (Pfleger Reiner), Кэролайн Рэпп (L. Gottschall), Роберт Шупп (Anwalt), Татя Зайбт-Описание:
Капризный и чрезмерно амбициозный пианист Анди и живущий каждым днём Бенно схожи только в одном: они оба скоро умрут. Не желая оставаться в хосписе, перед смертью они решают пережить лучший день своей жизни. Обманным путём получив деньги в банке, они отправляются в путешествие в Африку. Для обоих больных поездка становится настоящим вызовом, а одному из них предстоит впервые столкнуться со своим прошлым. Хотя путешествие и хранит в себе опасности, через ряд забавных и трагических моментов герои достигают своей цели: переживают лучший день своей жизни, а главное осознают - человек сам пишет историю своей жизни.-Рейтинг:
-Качество: BDRip-AVC
Формат: MKV
Видео: AVC, 1024x428 (2.40:1), 2043 kbps, 23,976 fps, 0,194 bpp
Аудио №1: русский / AC3 / 5.1 / 48 kHz / 448 kbps
Аудио №2: немецкий / AC3 / 5.1 / 48 kHz / 448 kbps
Семпл-

ОтчетМедиаИнфо

General
Unique ID : 200479342826318716177015981715510797302 (0x96D2EABDC2E6C00B9F5CE5C48D9023F6)
Complete name : D:downloadDer geilste Tag.2016.BDRip-AVC by schultz R.G.Resident.mkv
Format : Matroska
Format version : Version 4 / Version 2
File size : 2.33 GiB
Duration : 1 h 53 min
Overall bit rate : 2 941 kb/s
Encoded date : UTC 2016-09-14 19:29:46
Writing application : mkvmerge v8.9.0 ('Father Daughter') 64bit
Writing library : libebml v1.3.3 + libmatroska v1.4.4
Video
ID : 1
Format : AVC
Format/Info : Advanced Video Codec
Format profile : [email protected]
Format settings, CABAC : Yes
Format settings, ReFrames : 12 frames
Codec ID : V_MPEG4/ISO/AVC
Duration : 1 h 53 min
Bit rate : 2 043 kb/s
Width : 1 024 pixels
Height : 428 pixels
Display aspect ratio : 2.40:1
Frame rate mode : Constant
Frame rate : 23.976 (23976/1000) FPS
Color space : YUV
Chroma subsampling : 4:2:0
Bit depth : 8 bits
Scan type : Progressive
Bits/(Pixel*Frame) : 0.194
Stream size : 1.62 GiB (69%)
Writing library : x264 core 146 r2538 121396c
Encoding settings : cabac=1 / ref=12 / deblock=1:-3:-3 / analyse=0x3:0x113 / me=umh / subme=11 / psy=1 / psy_rd=1.00:0.00 / mixed_ref=1 / me_range=48 / chroma_me=1 / trellis=2 / 8x8dct=1 / cqm=0 / deadzone=21,11 / fast_pskip=0 / chroma_qp_offset=-2 / threads=12 / lookahead_threads=3 / sliced_threads=0 / nr=0 / decimate=0 / interlaced=0 / bluray_compat=0 / constrained_intra=0 / bframes=11 / b_pyramid=2 / b_adapt=2 / b_bias=0 / direct=3 / weightb=1 / open_gop=0 / weightp=2 / keyint=240 / keyint_min=23 / scenecut=40 / intra_refresh=0 / rc_lookahead=40 / rc=2pass / mbtree=1 / bitrate=2043 / ratetol=1.0 / qcomp=0.60 / qpmin=0 / qpmax=69 / qpstep=4 / cplxblur=20.0 / qblur=0.5 / vbv_maxrate=50000 / vbv_bufsize=62500 / nal_hrd=none / filler=0 / ip_ratio=1.40 / aq=1:1.00
Language : English
Default : Yes
Forced : No
Audio #1
ID : 2
Format : AC-3
Format/Info : Audio Coding 3
Mode extension : CM (complete main)
Format settings, Endianness : Big
Codec ID : A_AC3
Duration : 1 h 53 min
Bit rate mode : Constant
Bit rate : 448 kb/s
Channel(s) : 6 channels
Channel positions : Front: L C R, Side: L R, LFE
Sampling rate : 48.0 kHz
Frame rate : 31.250 FPS (1536 spf)
Compression mode : Lossy
Stream size : 363 MiB (15%)
Language : Russian
Default : Yes
Forced : No
Audio #2
ID : 3
Format : AC-3
Format/Info : Audio Coding 3
Mode extension : CM (complete main)
Format settings, Endianness : Big
Codec ID : A_AC3
Duration : 1 h 53 min
Bit rate mode : Constant
Bit rate : 448 kb/s
Channel(s) : 6 channels
Channel positions : Front: L C R, Side: L R, LFE
Sampling rate : 48.0 kHz
Frame rate : 31.250 FPS (1536 spf)
Compression mode : Lossy
Stream size : 363 MiB (15%)
Language : German
Default : No
Forced : No

Скриншоты

[Цитировать]



Показать сообщения:    

Текущее время: 05-Дек 05:28

Часовой пояс: UTC + 3


Вы не можете начинать темы
Вы не можете отвечать на сообщения
Вы не можете редактировать свои сообщения
Вы не можете удалять свои сообщения
Вы не можете голосовать в опросах
Вы не можете прикреплять файлы к сообщениям
Вы не можете скачивать файлы

!ВНИМАНИЕ!
Сайт не предоставляет электронные версии произведений, а занимается лишь коллекционированием и каталогизацией ссылок, присылаемых и публикуемых на форуме нашими читателями. Если вы являетесь правообладателем какого-либо представленного материала и не желаете, чтобы ссылка на него находилась в нашем каталоге, свяжитесь с нами, и мы незамедлительно удалим ее. Файлы для обмена на трекере предоставлены пользователями сайта, и администрация не несет ответственности за их содержание. Просьба не заливать файлы, защищенные авторскими правами, а также файлы нелегального содержания!