[ Сегодня идет свободное скачивание без начисления Download ]


Статистика раздачи
Нет
 
   
 
Top  
 
 
Папашина армия / Dad's Army (2016) Информация о фильме
Название: Папашина армия
Оригинальное название: Dad's Army
Год выхода: 2016
Жанр: Комедия
Режиссер: Оливер Паркер
В ролях: Кэтрин Зета-Джонс, Билл Найи, Майкл Гэмбон, Тоби Джонс, Сара Ланкашир, Марк Гейтисс, Дэниэл Мейс, Элисон Стэдмен, Том Кортни, Блейк Харрисон
О фильме:
Вторая мировая война близится к концу. Бравому отряду из Уолмингтона приходится столкнуться с симпатичной журналисткой и по совместительству немецкой шпионкой.

Страна: Великобритания
Студия: DJ Films
Продолжительность: 01:39:52
Перевод: Дублированный | Лицензия R5 |
Файл
Кодек: MPEG-4
Качество: BDRip 720
Видео: 1280x534, 4300 Kbit/s, 23.976 fps
Звук:
Аудио #01: 48 kHz, AC3, 5.1, 384 Kbps | Дублированный | Лицензия |
Аудио #02: 48 kHz, AC3, 5.1, 384 kbps | Оригинал |
Субтитры: Английские

MI

Общее
Уникальный идентификатор : 179728402487705899254171470740340756131 (0x87366E647C6DAB33AC12B895F17A4EA3)
Полное имя : G:VideoDad's.Army.2016.D.BDRip.720p.ExKinoRay.mkv
Формат : Matroska
Версия формата : Version 4 / Version 2
Размер файла : 3,51 Гбайт
Продолжительность : 1 ч. 39 м.
Общий поток : 5026 Кбит/сек
Название фильма : ***селезень***
Дата кодирования : UTC 2016-09-16 02:20:40
Программа кодирования : mkvmerge v8.3.0 ('Over the Horizon') 64bit
Библиотека кодирования : libebml v1.3.1 + libmatroska v1.4.2
Видео
Идентификатор : 1
Формат : AVC
Формат/Информация : Advanced Video Codec
Профиль формата : High@L4.1
Параметр CABAC формата : Да
Параметр ReFrames формата : 12 кадров
Идентификатор кодека : V_MPEG4/ISO/AVC
Продолжительность : 1 ч. 39 м.
Битрейт : 4258 Кбит/сек
Ширина : 1280 пикселей
Высота : 534 пикселя
Соотношение сторон : 2,40:1
Режим частоты кадров : Постоянный
Частота кадров : 23,976 (24000/1001) кадра/сек
Цветовое пространство : YUV
Субдискретизация насыщенности : 4:2:0
Битовая глубина : 8 бит
Тип развёртки : Прогрессивная
Бит/(Пиксели*Кадры) : 0.260
Размер потока : 2,97 Гбайт (85%)
Заголовок : ***селезень***
Библиотека кодирования : x264 core 148 r2694 3b70645
Настройки программы : cabac=1 / ref=12 / deblock=1:-3:-3 / analyse=0x3:0x113 / me=umh / subme=11 / psy=1 / psy_rd=1.00:0.00 / mixed_ref=1 / me_range=48 / chroma_me=1 / trellis=2 / 8x8dct=1 / cqm=0 / deadzone=21,11 / fast_pskip=0 / chroma_qp_offset=-2 / threads=8 / lookahead_threads=1 / sliced_threads=0 / nr=0 / decimate=1 / interlaced=0 / bluray_compat=0 / constrained_intra=0 / bframes=8 / b_pyramid=2 / b_adapt=1 / b_bias=0 / direct=1 / weightb=1 / open_gop=0 / weightp=2 / keyint=240 / keyint_min=24 / scenecut=40 / intra_refresh=0 / rc_lookahead=60 / rc=2pass / mbtree=1 / bitrate=4258 / ratetol=1.0 / qcomp=0.60 / qpmin=0 / qpmax=69 / qpstep=4 / cplxblur=20.0 / qblur=0.5 / vbv_maxrate=50000 / vbv_bufsize=25000 / nal_hrd=none / filler=0 / ip_ratio=1.40 / aq=1:1.00
Язык : English
Default : Да
Forced : Нет
Аудио #1
Идентификатор : 2
Формат : AC-3
Формат/Информация : Audio Coding 3
Расширение режима : CM (complete main)
Параметр Endianness формата : Big
Идентификатор кодека : A_AC3
Продолжительность : 1 ч. 39 м.
Вид битрейта : Постоянный
Битрейт : 384 Кбит/сек
Каналы : 6 каналов
Расположение каналов : Front: L C R, Side: L R, LFE
Частота : 48,0 КГц
Частота кадров : 31,250 кадров/сек (1536 spf)
Метод сжатия : С потерями
Размер потока : 274 Мбайт (8%)
Заголовок : Dub [R5]
Язык : Russian
Default : Да
Forced : Нет
Аудио #2
Идентификатор : 3
Формат : AC-3
Формат/Информация : Audio Coding 3
Расширение режима : CM (complete main)
Параметр Endianness формата : Big
Идентификатор кодека : A_AC3
Продолжительность : 1 ч. 39 м.
Вид битрейта : Постоянный
Битрейт : 384 Кбит/сек
Каналы : 6 каналов
Расположение каналов : Front: L C R, Side: L R, LFE
Частота : 48,0 КГц
Частота кадров : 31,250 кадров/сек (1536 spf)
Метод сжатия : С потерями
Размер потока : 274 Мбайт (8%)
Заголовок : Original
Язык : English
Default : Нет
Forced : Нет
Текст #1
Идентификатор : 4
Формат : UTF-8
Идентификатор кодека : S_TEXT/UTF8
Идентификатор кодека/Информация : UTF-8 Plain Text
Продолжительность : 1 ч. 37 м.
Битрейт : 62 бит/сек
Count of elements : 1498
Размер потока : 44,3 Кбайт (0%)
Заголовок : Full
Язык : English
Default : Нет
Forced : Нет
Текст #2
Идентификатор : 5
Формат : UTF-8
Идентификатор кодека : S_TEXT/UTF8
Идентификатор кодека/Информация : UTF-8 Plain Text
Продолжительность : 1 ч. 38 м.
Битрейт : 67 бит/сек
Count of elements : 1704
Размер потока : 48,8 Кбайт (0%)
Заголовок : SDH
Язык : English
Default : Нет
Forced : Нет
Меню
00:00:00.000 : en:Chapter 01
00:03:59.906 : en:Chapter 02
00:07:50.220 : en:Chapter 03
00:14:23.071 : en:Chapter 04
00:18:36.574 : en:Chapter 05
00:23:29.992 : en:Chapter 06
00:27:39.449 : en:Chapter 07
00:32:51.261 : en:Chapter 08
00:38:16.586 : en:Chapter 09
00:43:58.177 : en:Chapter 10
00:47:32.433 : en:Chapter 11
00:54:25.721 : en:Chapter 12
00:57:55.305 : en:Chapter 13
01:02:06.806 : en:Chapter 14
01:06:10.884 : en:Chapter 15
01:11:01.549 : en:Chapter 16
01:17:48.247 : en:Chapter 17
01:23:16.783 : en:Chapter 18
01:31:48.294 : en:Chapter 19
01:35:52.705 : en:Chapter 20

Скриншоты

[Цитировать]



Показать сообщения:    

Текущее время: 07-Дек 13:40

Часовой пояс: UTC + 3


Вы не можете начинать темы
Вы не можете отвечать на сообщения
Вы не можете редактировать свои сообщения
Вы не можете удалять свои сообщения
Вы не можете голосовать в опросах
Вы не можете прикреплять файлы к сообщениям
Вы не можете скачивать файлы

!ВНИМАНИЕ!
Сайт не предоставляет электронные версии произведений, а занимается лишь коллекционированием и каталогизацией ссылок, присылаемых и публикуемых на форуме нашими читателями. Если вы являетесь правообладателем какого-либо представленного материала и не желаете, чтобы ссылка на него находилась в нашем каталоге, свяжитесь с нами, и мы незамедлительно удалим ее. Файлы для обмена на трекере предоставлены пользователями сайта, и администрация не несет ответственности за их содержание. Просьба не заливать файлы, защищенные авторскими правами, а также файлы нелегального содержания!