[ Сегодня идет свободное скачивание без начисления Download ]


Статистика раздачи
Нет
 
   
 
Top  
 
 
Томми / Tommy (2014) Информация о фильме
Название: Томми
Оригинальное название: Tommy
Год выпуска: 2014
Жанр: Триллер
Выпущено: Швеция, Tordenfilm AS
Режиссер: Тарик Салех
В ролях: Люкке Ли, Моа Гаммель, Ола Рапас, Алексей Манвелов, Йохан Рабеус, Инец Бюкнер, Эва Фрёлинг, Ингела Ольссон, Александр Стокс, Аззан Як
О фильме: «Когда королева возвращается, она поджигает город»
До всеми любимых рождественских праздников остается всего лишь неделя. Все находятся в ожидании чуда и множества веселья. Женщина по имени Эстель прилетает в Стокгольм в аэропорт «Арланда». Еще год назад ей пришлось бежать из городка из-за своего мужа Томми, ведь он пошел на незаконный поступок — ограбление. Однако это не какое-то мелкое воровство, а нашумевшее дело, которое поставило «на уши» всю Швецию. После этого события героине вместе с мужем и их дочкой необходимо было уехать из страны, чтоб не попасть в тюремное заключение. Зачем же возвращаться тогда?!
Эстель пытается разыскать всех, кто принимал участие в этом ограблении, чтоб сказать, что Томми в скором времени собирается вернуться и забрать свою долю от того дела. По всему криминальному миру Стокгольма с невероятной скоростью разносится данная весть. Если ее муж все же надумал приехать, то всему городу не поздоровится, ведь это будет волна насилия. Но и при обстоятельствах, когда он не вернется, то хорошего тоже мало. Какие же страшные вещи все таки могут случиться?!... Вся история будет вестись о женщине, которая стоит за именем своего мужчины и его нашумевшей репутации..
Файл
Качество: HDRip (AVC)
Видео: MPEG-4 AVC, 1934 Кбит/с, 1024x552
Аудио: Русский (AC3, 2 ch, 192 Кбит/с), шведский (AC3, 6 ch, 384 Кбит/c)
Размер: 1.77 ГБ
Продолжительность: 01:33:47
Перевод: Авторский, любительский одноголосый
Субтитры: Русские, датские
Перевод: Авторский одноголосый закадровый [Алексей Матвеев] (Озвучка и перевод. Работа со звуком - Perevodman)
Любительский одноголосый закадровый [ViruseProject]

MI

General
Unique ID : 235062096609764633030908727756353877197 (0xB0D750250920143D99E57869E65AB4CD)
Complete name : C:Tommy.2014.HDRip.AVC.ExKinoRay.mkv
Format : Matroska
Format version : Version 2
File size : 1.77 GiB
Duration : 1h 33mn
Overall bit rate : 2 703 Kbps
Movie name : Tommy 2014 from ExKinoRay
Encoded date : UTC 2014-08-29 21:16:36
Writing application : mkvmerge v4.9.1 ('Ich will') built on Jul 11 2011 23:53:15
Writing library : libebml v1.2.1 + libmatroska v1.1.1
Video
ID : 1
Format : AVC
Format/Info : Advanced Video Codec
Format profile : High@L4.1
Format settings, CABAC : Yes
Format settings, ReFrames : 9 frames
Codec ID : V_MPEG4/ISO/AVC
Duration : 1h 33mn
Bit rate : 1 934 Kbps
Width : 1 024 pixels
Height : 552 pixels
Display aspect ratio : 1.85:1
Frame rate mode : Constant
Frame rate : 24.000 fps
Color space : YUV
Chroma subsampling : 4:2:0
Bit depth : 8 bits
Scan type : Progressive
Bits/(Pixel*Frame) : 0.143
Stream size : 1.23 GiB (70%)
Title : Enigma-Vladislav71
Writing library : x264 core 116 r2044 392e762
Encoding settings : cabac=1 / ref=9 / deblock=1:-3:-3 / analyse=0x3:0x113 / me=umh / subme=9 / psy=1 / psy_rd=1.00:0.20 / mixed_ref=1 / me_range=32 / chroma_me=1 / trellis=2 / 8x8dct=1 / cqm=0 / deadzone=21,11 / fast_pskip=0 / chroma_qp_offset=-3 / threads=12 / sliced_threads=0 / nr=0 / decimate=0 / interlaced=0 / bluray_compat=0 / constrained_intra=0 / bframes=9 / b_pyramid=2 / b_adapt=2 / b_bias=0 / direct=3 / weightb=1 / open_gop=0 / weightp=2 / keyint=240 / keyint_min=24 / scenecut=40 / intra_refresh=0 / rc=2pass / mbtree=0 / bitrate=1934 / ratetol=1.0 / qcomp=0.60 / qpmin=0 / qpmax=69 / qpstep=4 / cplxblur=20.0 / qblur=0.5 / ip_ratio=1.40 / pb_ratio=1.30 / aq=1:1.00
Default : Yes
Forced : No
Audio #1
ID : 2
Format : AC-3
Format/Info : Audio Coding 3
Mode extension : CM (complete main)
Format settings, Endianness : Big
Codec ID : A_AC3
Duration : 1h 33mn
Bit rate mode : Constant
Bit rate : 192 Kbps
Channel(s) : 2 channels
Channel positions : Front: L R
Sampling rate : 48.0 KHz
Bit depth : 16 bits
Compression mode : Lossy
Stream size : 129 MiB (7%)
Title : Doctor_Joker
Language : Russian
Default : No
Forced : No
Audio #2
ID : 3
Format : AC-3
Format/Info : Audio Coding 3
Mode extension : CM (complete main)
Format settings, Endianness : Big
Codec ID : A_AC3
Duration : 1h 33mn
Bit rate mode : Constant
Bit rate : 192 Kbps
Channel(s) : 2 channels
Channel positions : Front: L R
Sampling rate : 48.0 KHz
Bit depth : 16 bits
Compression mode : Lossy
Stream size : 129 MiB (7%)
Title : VO
Language : Russian
Default : No
Forced : No
Audio #3
ID : 4
Format : AC-3
Format/Info : Audio Coding 3
Mode extension : CM (complete main)
Format settings, Endianness : Big
Codec ID : A_AC3
Duration : 1h 33mn
Bit rate mode : Constant
Bit rate : 384 Kbps
Channel(s) : 6 channels
Channel positions : Front: L C R, Side: L R, LFE
Sampling rate : 48.0 KHz
Bit depth : 16 bits
Compression mode : Lossy
Stream size : 258 MiB (14%)
Language : Swedish
Default : No
Forced : No
Text #1
ID : 5
Format : UTF-8
Codec ID : S_TEXT/UTF8
Codec ID/Info : UTF-8 Plain Text
Title : Кирилл Шантыко
Language : Russian
Default : No
Forced : No
Text #2
ID : 6
Format : UTF-8
Codec ID : S_TEXT/UTF8
Codec ID/Info : UTF-8 Plain Text
Language : Danish
Default : No
Forced : No

Рецензия

Кино очень атмосферное. Шведская классическая режиссура. Сказал бы так… тем, кто любит в первую очередь сюжет, остроту безумных ощущений и мясо-кровь-кишки — этот фильм будет менее интересен, хотя, думаю, и они оценят. Своей остроты хватает, но она выдержана по-скандинавски спокойно и гордо.
Отличные актеры. Они, наверное, превозносят фильм просто еще выше. Единственный минус, наверное, немного затянутое начало, хотя все в этом поле субъективно.
Киноманы фильм определенно оценят: качественно снят, бюджет достойный, актерская игры великолепна, и еще больше деталей можно замечать при очередном пересмотре фильма (их на самом деле хватает).
Ну, и поклонники Люкке Ли и саундтреков из Сумерек определенно должны оценить ее отличную игру, при этом в одной из ключевых ролей.
Фильм достойный, жаль, что русской озвучки, впрочем как и любой иной, пока не планируется. Зато недавно были организованы русские субтитры с учетом того, что шведских (оригинальных), английских, например, все еще нет.
10 из 10
Рецензия автора: Kyrill Schantyka

Скриншоты


[Цитировать]



Показать сообщения:    

Текущее время: 08-Дек 21:18

Часовой пояс: UTC + 3


Вы не можете начинать темы
Вы не можете отвечать на сообщения
Вы не можете редактировать свои сообщения
Вы не можете удалять свои сообщения
Вы не можете голосовать в опросах
Вы не можете прикреплять файлы к сообщениям
Вы не можете скачивать файлы

!ВНИМАНИЕ!
Сайт не предоставляет электронные версии произведений, а занимается лишь коллекционированием и каталогизацией ссылок, присылаемых и публикуемых на форуме нашими читателями. Если вы являетесь правообладателем какого-либо представленного материала и не желаете, чтобы ссылка на него находилась в нашем каталоге, свяжитесь с нами, и мы незамедлительно удалим ее. Файлы для обмена на трекере предоставлены пользователями сайта, и администрация не несет ответственности за их содержание. Просьба не заливать файлы, защищенные авторскими правами, а также файлы нелегального содержания!