[ Сегодня идет свободное скачивание без начисления Download ]


Статистика раздачи
Нет
 
   
 
Top  
 
 
Ковбои против пришельцев / Cowboys & Aliens (2011) Информация о фильме
Название: Ковбои против пришельцев
Оригинальное название: Cowboys and Aliens
Год выхода: 2011
Жанр: фантастика, боевик, триллер, вестерн
Режиссер: Джон Фавро
В ролях: Дэниэл Крэйг, Харрисон Форд, Оливия Уайлд, Сэм Рокуэлл, Адам Бич, Пол Дано, Ноа Рингер, Эбигейл Спенсер, Бак Тейлор, Мэттью Тейлор
О фильме:
1873, Абсолюшен, штат Аризона. В эту глухую американскую провинцию прибывает потерявший память незнакомец. Единственный намек на его прошлое — это странные кандалы на одном из его запястий. Странник быстро узнает, что жители городка не рады незнакомцам, да и вообще они выходят на улицы лишь по приказу полковника Долархайда, правящего в этой местности железной рукой.
Вскоре странное поведение жителей объясняется. Периодически с неба обрушиваются ужасающие создания, которые забирают все, что им заблагорассудится и держат город в паническом страхе. Главный герой, постепенно вспоминающий о том, что с ним произошло, становится единственной надеждой города на спасение.

Страна: США, Индия
Продолжительность: 01:58:32
Перевод: Дубляж
Файл
Кодек: H.264
Качество: BDRip 720р от SuperMin
Видео: 1280x536 (2.40:1), 3135 kbps, 23.976 fps
Звук:
Русский (AC-3, 6ch, 640 kbps)
Английский (AC-3, 6ch, 640 kbps)
Субтитры: русские, английские

Лог

x264 [info]: frame I:1669 Avg QP:16.52 size:100168
x264 [info]: frame P:41102 Avg QP:18.10 size: 33028
x264 [info]: frame B:127754 Avg QP:21.50 size: 9881
x264 [info]: consecutive B-frames: 4.7% 3.6% 8.4% 17.2% 23.2% 33.8% 5.7% 2.3% 1.2%
encoded 170525 frames, 7.91 fps, 3134.96 kb/s

MI

General
Unique ID : 201330037603536227722809228088308124588 (0x9776C13B64C9315AA8741419F9C7CBAC)
Complete name : F:ФИЛЬМЫКовбои.Против.Пришельцев.2011.x264.BDRip.720p.mkv
Format : Matroska
Format version : Version 4 / Version 2
File size : 3.66 GiB
Duration : 1h 58mn
Overall bit rate : 4 417 Kbps
Movie name : Ковбои против пришельцев (2011) - #LORDKILL#
Encoded date : UTC 2016-09-15 09:39:14
Writing application : mkvmerge v8.0.0 ('Til The Day That I Die') 64bit
Writing library : libebml v1.3.1 + libmatroska v1.4.2
Video
ID : 1
Format : AVC
Format/Info : Advanced Video Codec
Format profile : High@L4.1
Format settings, CABAC : Yes
Format settings, ReFrames : 10 frames
Codec ID : V_MPEG4/ISO/AVC
Duration : 1h 58mn
Bit rate : 3 135 Kbps
Width : 1 280 pixels
Height : 536 pixels
Display aspect ratio : 2.40:1
Frame rate mode : Constant
Frame rate : 23.976 (24000/1001) fps
Color space : YUV
Chroma subsampling : 4:2:0
Bit depth : 8 bits
Scan type : Progressive
Bits/(Pixel*Frame) : 0.191
Stream size : 2.60 GiB (71%)
Writing library : x264 core 146 r2538 121396c
Encoding settings : cabac=1 / ref=10 / deblock=1:-1:-1 / analyse=0x3:0x113 / me=umh / subme=11 / psy=1 / psy_rd=1.00:0.10 / mixed_ref=1 / me_range=32 / chroma_me=1 / trellis=2 / 8x8dct=1 / cqm=0 / deadzone=21,11 / fast_pskip=0 / chroma_qp_offset=-3 / threads=12 / lookahead_threads=2 / sliced_threads=0 / nr=0 / decimate=1 / interlaced=0 / bluray_compat=0 / constrained_intra=0 / bframes=8 / b_pyramid=2 / b_adapt=2 / b_bias=0 / direct=1 / weightb=1 / open_gop=0 / weightp=2 / keyint=240 / keyint_min=121 / scenecut=40 / intra_refresh=0 / rc=crf / mbtree=0 / crf=19.0 / qcomp=0.60 / qpmin=0 / qpmax=69 / qpstep=4 / ip_ratio=1.40 / pb_ratio=1.30 / aq=1:1.00
Default : Yes
Forced : No
Audio #1
ID : 2
Format : AC-3
Format/Info : Audio Coding 3
Mode extension : CM (complete main)
Format settings, Endianness : Big
Codec ID : A_AC3
Duration : 1h 58mn
Bit rate mode : Constant
Bit rate : 640 Kbps
Channel(s) : 6 channels
Channel positions : Front: L C R, Side: L R, LFE
Sampling rate : 48.0 KHz
Frame rate : 31.250 fps (1536 spf)
Compression mode : Lossy
Stream size : 543 MiB (14%)
Title : Дубляж
Language : Russian
Default : Yes
Forced : No
Audio #2
ID : 3
Format : AC-3
Format/Info : Audio Coding 3
Mode extension : CM (complete main)
Format settings, Endianness : Big
Codec ID : A_AC3
Duration : 1h 58mn
Bit rate mode : Constant
Bit rate : 640 Kbps
Channel(s) : 6 channels
Channel positions : Front: L C R, Side: L R, LFE
Sampling rate : 48.0 KHz
Frame rate : 31.250 fps (1536 spf)
Compression mode : Lossy
Stream size : 543 MiB (14%)
Language : English
Default : No
Forced : No
Text #1
ID : 4
Format : UTF-8
Codec ID : S_TEXT/UTF8
Codec ID/Info : UTF-8 Plain Text
Duration : 1h 50mn
Bit rate : 39 bps
Count of elements : 840
Stream size : 32.2 KiB (0%)
Language : Russian
Default : No
Forced : No
Text #2
ID : 5
Format : UTF-8
Codec ID : S_TEXT/UTF8
Codec ID/Info : UTF-8 Plain Text
Duration : 1h 50mn
Bit rate : 29 bps
Count of elements : 883
Stream size : 24.2 KiB (0%)
Language : English
Default : No
Forced : No
Menu
00:00:00.000 : en:
00:07:58.895 : en:
00:14:57.229 : en:
00:22:11.830 : en:
00:27:35.737 : en:
00:37:36.796 : en:
00:43:23.225 : en:
00:48:06.300 : en:
00:52:59.301 : en:
00:56:38.019 : en:
01:02:42.091 : en:
01:07:18.159 : en:
01:13:02.920 : en:
01:18:45.637 : en:
01:26:18.006 : en:
01:30:26.504 : en:
01:33:56.005 : en:
01:40:05.249 : en:
01:46:42.187 : en:
01:54:21.938 : en:
01:58:32.021 : en:

Скриншоты

[Цитировать]



Показать сообщения:    

Текущее время: 16-Янв 20:26

Часовой пояс: UTC + 3


Вы не можете начинать темы
Вы не можете отвечать на сообщения
Вы не можете редактировать свои сообщения
Вы не можете удалять свои сообщения
Вы не можете голосовать в опросах
Вы не можете прикреплять файлы к сообщениям
Вы не можете скачивать файлы

!ВНИМАНИЕ!
Сайт не предоставляет электронные версии произведений, а занимается лишь коллекционированием и каталогизацией ссылок, присылаемых и публикуемых на форуме нашими читателями. Если вы являетесь правообладателем какого-либо представленного материала и не желаете, чтобы ссылка на него находилась в нашем каталоге, свяжитесь с нами, и мы незамедлительно удалим ее. Файлы для обмена на трекере предоставлены пользователями сайта, и администрация не несет ответственности за их содержание. Просьба не заливать файлы, защищенные авторскими правами, а также файлы нелегального содержания!