[ Сегодня идет свободное скачивание без начисления Download ]


Статистика раздачи
Скачал: [ 1 ]
 
   
 
Top  
 
 
Необратимость / Irreversible (2002) Информация о фильме
Название: Необратимость
Оригинальное название: Irreversible
Год выхода: 2002
Жанр: Триллер, драма, криминал, детектив
Режиссер: Гаспар Ноэ
В ролях: Моника Беллуччи, Венсан Кассель, Альбер Дюпонтель, Джо Престиа, Филипп Наон, Стефан Друо, Жан-Луи Кост, Мишель Гондуэн, Мурад Хима, Эллаль
О фильме:
История раскручивается из конца в начало. Темнота ночи, багровые отблески на стенах притона, бледные, как простыня, лица. Герой мечется в лабиринте лестниц и переходов одного из подпольных гей-клубов. Цель — найти и убить человека, которого он никогда даже не видел в глаза. Но у него есть веская причина ненавидеть: незнакомец до смерти изнасиловал его подругу, с которой случайно столкнулся в безлюдном городском переходе…

Выпущено: Франция / 120 Films, Eskwad, Les Cinémas de la Zone, Nord-Ouest Productions, Studio Canal
Продолжительность: 01:33:32
Перевод: Профессиональный многоголосый, профессиональный двухголосый
Файл
Формат: MKV
Качество: BDRip 720p
Видео: MPEG-4 AVC, 6042 Кбит/с, 1280x568
Аудио 1: Русский (AC3, 2 ch, 192 Кбит/с) Профессиональный многоголосый
Аудио 2: Русский (AC3, 6 ch, 448 Кбит/с) Профессиональный двухголосый (CP Digital)
Аудио 3: Французский (AC3, 6 ch, 640 Кбит/с) Original
Аудио 3: Французский (AC3, 2 ch, 224 Кбит/с) Comments
Субтитры: Русские, английские
Семпл

MI

Общее
Уникальный идентификатор : 209882036547124234807206453849409744335 (0x9DE5CF55716F2A82B29D7E9383106DCF)
Полное имя : E:Раздача-BDRipNeobratimost.2002.BDRip.720p.Sborka_grab777.mkv
Формат : Matroska
Версия формата : Version 2
Размер файла : 4,93 Гбайт
Продолжительность : 1 ч. 33 м.
Общий поток : 7542 Кбит/сек
Название фильма : Необратимость / Irreversible (2002) BDRip 720p_Sborka_grab777
Дата кодирования : UTC 2016-09-15 00:20:28
Программа кодирования : mkvmerge v5.8.0 ('No Sleep / Pillow') built on Sep 2 2012 15:37:04
Библиотека кодирования : libebml v1.2.3 + libmatroska v1.3.0
Обложка : Yes
Attachment : Yes
Видео
Идентификатор : 1
Формат : AVC
Формат/Информация : Advanced Video Codec
Профиль формата : High@L4.1
Параметр CABAC формата : Да
Параметр ReFrames формата : 5 кадров
Идентификатор кодека : V_MPEG4/ISO/AVC
Продолжительность : 1 ч. 33 м.
Битрейт : 6042 Кбит/сек
Ширина : 1280 пикселей
Высота : 568 пикселей
Соотношение сторон : 2,25:1
Режим частоты кадров : Постоянный
Частота кадров : 25,000 кадров/сек
Цветовое пространство : YUV
Субдискретизация насыщенности : 4:2:0
Битовая глубина : 8 бит
Тип развёртки : Прогрессивная
Бит/(Пиксели*Кадры) : 0.332
Размер потока : 3,85 Гбайт (78%)
Заголовок : Sborka_grab777
Библиотека кодирования : x264 core 142 r2431 ac76440
Настройки программы : cabac=1 / ref=5 / deblock=1:0:0 / analyse=0x3:0x113 / me=umh / subme=8 / psy=1 / psy_rd=1.00:0.00 / mixed_ref=1 / me_range=16 / chroma_me=1 / trellis=1 / 8x8dct=1 / cqm=0 / deadzone=21,11 / fast_pskip=1 / chroma_qp_offset=-2 / threads=12 / lookahead_threads=2 / sliced_threads=0 / nr=0 / decimate=1 / interlaced=0 / bluray_compat=0 / constrained_intra=0 / bframes=3 / b_pyramid=2 / b_adapt=2 / b_bias=0 / direct=3 / weightb=1 / open_gop=0 / weightp=2 / keyint=250 / keyint_min=25 / scenecut=40 / intra_refresh=0 / rc_lookahead=50 / rc=2pass / mbtree=1 / bitrate=6042 / ratetol=1.0 / qcomp=0.60 / qpmin=0 / qpmax=69 / qpstep=4 / cplxblur=20.0 / qblur=0.5 / vbv_maxrate=62500 / vbv_bufsize=78125 / nal_hrd=none / filler=0 / ip_ratio=1.40 / aq=1:1.00
Язык : French
Default : Да
Forced : Нет
Аудио #1
Идентификатор : 2
Формат : AC-3
Формат/Информация : Audio Coding 3
Расширение режима : CM (complete main)
Параметр Endianness формата : Big
Идентификатор кодека : A_AC3
Продолжительность : 1 ч. 33 м.
Вид битрейта : Постоянный
Битрейт : 192 Кбит/сек
Каналы : 2 канала
Расположение каналов : Front: L R
Частота : 48,0 КГц
Битовая глубина : 16 бит
Метод сжатия : С потерями
Размер потока : 128 Мбайт (3%)
Заголовок : MVO
Язык : Russian
Default : Да
Forced : Нет
Аудио #2
Идентификатор : 3
Формат : AC-3
Формат/Информация : Audio Coding 3
Расширение режима : CM (complete main)
Параметр Endianness формата : Big
Идентификатор кодека : A_AC3
Продолжительность : 1 ч. 33 м.
Вид битрейта : Постоянный
Битрейт : 448 Кбит/сек
Каналы : 6 каналов
Расположение каналов : Front: L C R, Side: L R, LFE
Частота : 48,0 КГц
Битовая глубина : 16 бит
Метод сжатия : С потерями
Размер потока : 300 Мбайт (6%)
Заголовок : DVO (CP Digital)
Язык : Russian
Default : Нет
Forced : Нет
Аудио #3
Идентификатор : 4
Формат : AC-3
Формат/Информация : Audio Coding 3
Расширение режима : CM (complete main)
Параметр Endianness формата : Big
Идентификатор кодека : A_AC3
Продолжительность : 1 ч. 33 м.
Вид битрейта : Постоянный
Битрейт : 640 Кбит/сек
Каналы : 6 каналов
Расположение каналов : Front: L C R, Side: L R, LFE
Частота : 48,0 КГц
Битовая глубина : 16 бит
Метод сжатия : С потерями
Размер потока : 428 Мбайт (8%)
Заголовок : Original
Язык : French
Default : Нет
Forced : Нет
Аудио #4
Идентификатор : 5
Формат : AC-3
Формат/Информация : Audio Coding 3
Профиль формата : Dolby Digital
Расширение режима : CM (complete main)
Параметр Endianness формата : Big
Идентификатор кодека : A_AC3
Продолжительность : 1 ч. 33 м.
Вид битрейта : Постоянный
Битрейт : 224 Кбит/сек
Каналы : 2 канала
Расположение каналов : Front: L R
Частота : 48,0 КГц
Битовая глубина : 16 бит
Метод сжатия : С потерями
Размер потока : 150 Мбайт (3%)
Заголовок : Comments
Язык : French
Default : Нет
Forced : Нет
Текст #1
Идентификатор : 6
Формат : UTF-8
Идентификатор кодека : S_TEXT/UTF8
Идентификатор кодека/Информация : UTF-8 Plain Text
Язык : Russian
Default : Нет
Forced : Нет
Текст #2
Идентификатор : 7
Формат : UTF-8
Идентификатор кодека : S_TEXT/UTF8
Идентификатор кодека/Информация : UTF-8 Plain Text
Язык : English
Default : Нет
Forced : Нет
Меню
00:00:00.000 : en:00:00:00.000
00:04:28.319 : en:00:04:28.319
00:08:08.600 : en:00:08:08.600
00:11:44.038 : en:00:11:44.038
00:14:51.918 : en:00:14:51.918
00:18:28.880 : en:00:18:28.880
00:24:29.278 : en:00:24:29.278
00:29:41.519 : en:00:29:41.519
00:34:10.480 : en:00:34:10.480
00:40:53.000 : en:00:40:53.000
00:53:57.880 : en:00:53:57.880
00:58:42.199 : en:00:58:42.199
01:06:19.360 : en:01:06:19.360
01:15:22.600 : en:01:15:22.600
01:28:04.439 : en:01:28:04.439
01:33:15.158 : en:01:33:15.158

О релизе

Сборка: grab777
Перевод: Профессиональный многоголосый (AC3, 2 ch, 192 Кбит/с)
Перевод: Профессиональный двухголосый (CP Digital)
Французский (AC3, 2 ch, 224 Кбит/с) Comments

Награды

Каннский кинофестиваль, 2002 год
Номинации (1):
Золотая пальмовая ветвь

Скриншоты

[Цитировать]



Показать сообщения:    

Текущее время: 11-Дек 01:23

Часовой пояс: UTC + 3


Вы не можете начинать темы
Вы не можете отвечать на сообщения
Вы не можете редактировать свои сообщения
Вы не можете удалять свои сообщения
Вы не можете голосовать в опросах
Вы не можете прикреплять файлы к сообщениям
Вы не можете скачивать файлы

!ВНИМАНИЕ!
Сайт не предоставляет электронные версии произведений, а занимается лишь коллекционированием и каталогизацией ссылок, присылаемых и публикуемых на форуме нашими читателями. Если вы являетесь правообладателем какого-либо представленного материала и не желаете, чтобы ссылка на него находилась в нашем каталоге, свяжитесь с нами, и мы незамедлительно удалим ее. Файлы для обмена на трекере предоставлены пользователями сайта, и администрация не несет ответственности за их содержание. Просьба не заливать файлы, защищенные авторскими правами, а также файлы нелегального содержания!