[ Today is free to download without increasing Download ]

DL-List and Torrent activity
Complete: [ 1 ]
Бриджит Джонс 3 / Bridget Jones's Baby
Страна: Ирландия Великобритания Франция США
Производство: Universal Pictures, Miramax Films, Studio Canal, Working Title Films
Год выпуска: 2016
Жанр: мелодрама, комедия
Продолжительность: 01:54:18
Режиссер: Шэрон Магуайр
Авторы сценария: Хелен Филдинг, Дэн Мазер, Эмма Томпсон
В ролях: Рене Зеллвегер, Колин Фёрт, Патрик Демпси, Джемма Джонс, Джим Бродбент, Сэлли Филлипс, Джулиан Райнд-Татт, Ширли Хендерсон
Описание: Казалось бы, и карьера — в гору, и квартира — в центре Лондона, но она не была бы Бриджит Джонс, если бы не её способность оказываться не в то время, не в том месте, не с тем мужчиной. И теперь она понятия не имеет, кто отец её будущего ребенка: обаятельный миллиардер или известный адвокат. Одним словом, Бриджит Джонс в очень интересном положении...

Перевод: Профессиональный (полное дублирование)
Субтитры: нет-Качество: CAMRip
Формат: АVI
Видео кодек: XviD
Аудио кодек: АС3
Видео: 720x304 (2.35:1), 29.970 fps, XviD ~1 552 kbps avg
Аудио: 48 kHz, AC3 Dolby Digital, 2/0 (L,R) ch, ~192 kbps
Дата премьеры (мир): 14 сентября 2016
Дата премьеры (РФ): 15 сентября 2016, «UPI»

Media Info

Complete name : BriDJet.2O16.D.CAMRip.14OOMB.avi
Format : AVI
Format/Info : Audio Video Interleave
File size : 1.46 GiB
Duration : 1h 54mn
Overall bit rate : 1 826 Kbps
Writing application : VirtualDubMod (build 2540/release)
Writing library : VirtualDubMod build 2540/release
ID : 0
Format : MPEG-4 Visual
Format profile : Advanced Simple@L5
Format settings, BVOP : 2
Format settings, QPel : No
Format settings, GMC : No warppoints
Format settings, Matrix : Custom
Codec ID : XVID
Codec ID/Hint : XviD
Duration : 1h 54mn
Bit rate : 1 552 Kbps
Width : 720 pixels
Height : 304 pixels
Display aspect ratio : 2.35:1
Frame rate : 29.970 fps
Color space : YUV
Chroma subsampling : 4:2:0
Bit depth : 8 bits
Scan type : Progressive
Compression mode : Lossy
Bits/(Pixel*Frame) : 0.237
Stream size : 1.24 GiB (85%)
Writing library : XviD 1.2.1 (UTC 2008-12-04)
ID : 1
Format : AC-3
Format/Info : Audio Coding 3
Mode extension : CM (complete main)
Format settings, Endianness : Big
Codec ID : 2000
Duration : 1h 54mn
Bit rate mode : Constant
Bit rate : 192 Kbps
Channel(s) : 2 channels
Channel positions : Front: L R
Sampling rate : 48.0 KHz
Bit depth : 16 bits
Compression mode : Lossy
Stream size : 157 MiB (11%)
Alignment : Split accross interleaves



Display posts:    

Current time is: 26-Oct 03:31

All times are UTC + 3

You cannot post new topics in this forum
You cannot reply to topics in this forum
You cannot edit your posts in this forum
You cannot delete your posts in this forum
You cannot vote in polls in this forum
You cannot attach files in this forum
You cannot download files in this forum

The site does not give electronic versions of products, and is engaged only in a collecting and cataloguing of the references sent and published at a forum by our readers. If you are the legal owner of any submitted material and do not wish that the reference to it was in our catalogue, contact us and we shall immediately remove her. Files for an exchange on tracker are given by users of a site, and the administration does not bear the responsibility for their maintenance. The request to not fill in the files protected by copyrights, and also files of the illegal maintenance!