[ Сегодня идет свободное скачивание без начисления Download ]


Статистика раздачи
Нет
 
   
 
Top  
 
 
Сладкое прощание Веры (2014) DVB Информация о фильме
Название: Сладкое прощание Веры
Год выхода: 2014
Жанр: драма
Режиссер: Александра Бутор
В ролях: Павел Южаков-Харланчук, Юозас Будрайтис, Неле Савиченко-Климене, Сергей Журавель, Анна Полупанова, Татьяна Бовкалова, Алёна Сидорова, Виктор Манаев, Елена Побегаева
О фильме:
Бывшая стюардесса Вера всю жизнь ждала свою единственную любовь - капитана авиалайнера, который так и не решился ради нее бросить свою семью. На склоне лет она остается без работы, родных, друзей, с мучительными воспоминаниями. Опасаясь внезапной смерти, зная, что о ней никто не сможет позаботиться, Вера решает заранее организовать собственные похороны и приглашает к себе агента из бюро ритуальных услуг. Им оказывается романтичный парень. Между героями вспыхивает любовь, в которой они не смеют признаться даже себе. Время, проведенное рядом с этим человеком, становится для Веры самым сладким в жизни...
Доп. информация:
Сценаристы: Александра Бутор, Юлия Гирель
Оператор: Андрей Воскресенский
Художник: Михаил Кузьмин
Премьера: 7 мая 2015, 15 мая 2015
Запись потока *.ts с наземного цифрового телеканала "СТВ - столичное телевидение (Минск)".

Благодарность: за помощь с недостающим материалом Bartimeyse. Большое спасибо!
Страна: Республика Беларусь
Студия: Беларусьфильм
Продолжительность: 01:39:03
Перевод: Не требуется
Файл
Кодек: AVC (H264)
Качество: DVB
Видео: MPEG4 Video (H264) 720(785)x576 (49:36) 25fps, 2 360 kb/s
Звук: MPEG Audio 48000Hz stereo 256kbps
Семпл

MediaInfo

General
ID : 1 (0x1)
Complete name : D:Новая земля 2Художественные фильмыСладкое прощание Веры (2014)Сладкое прощание Веры (2014).ts
Format : MPEG-TS
File size : 1.91 GiB
Duration : 1 h 39 min
Overall bit rate mode : Variable
Overall bit rate : 2 755 kb/s
Video
ID : 513 (0x201)
Menu ID : 1 (0x1)
Format : AVC
Format/Info : Advanced Video Codec
Format profile : Main@L3
Format settings, CABAC : Yes
Format settings, ReFrames : 4 frames
Codec ID : 27
Duration : 1 h 39 min
Bit rate : 2 360 kb/s
Width : 720 pixels
Height : 576 pixels
Display aspect ratio : 4:3
Frame rate : 25.000 FPS
Standard : PAL
Color space : YUV
Chroma subsampling : 4:2:0
Bit depth : 8 bits
Scan type : MBAFF
Scan type, store method : Separated fields
Scan order : Top Field First
Bits/(Pixel*Frame) : 0.228
Stream size : 1.63 GiB (86%)
Color range : Limited
Color primaries : BT.601 PAL
Transfer characteristics : BT.470 System B, BT.470 System G
Matrix coefficients : BT.601
Audio
ID : 514 (0x202)
Menu ID : 1 (0x1)
Format : MPEG Audio
Format version : Version 1
Format profile : Layer 2
Codec ID : 3
Duration : 1 h 39 min
Bit rate mode : Constant
Bit rate : 256 kb/s
Channel(s) : 2 channels
Sampling rate : 48.0 kHz
Compression mode : Lossy
Stream size : 181 MiB (9%)
Language : English

Скриншот c названием фильма

[Цитировать]



Показать сообщения:    

Текущее время: 09-Дек 20:33

Часовой пояс: UTC + 3


Вы не можете начинать темы
Вы не можете отвечать на сообщения
Вы не можете редактировать свои сообщения
Вы не можете удалять свои сообщения
Вы не можете голосовать в опросах
Вы не можете прикреплять файлы к сообщениям
Вы не можете скачивать файлы

!ВНИМАНИЕ!
Сайт не предоставляет электронные версии произведений, а занимается лишь коллекционированием и каталогизацией ссылок, присылаемых и публикуемых на форуме нашими читателями. Если вы являетесь правообладателем какого-либо представленного материала и не желаете, чтобы ссылка на него находилась в нашем каталоге, свяжитесь с нами, и мы незамедлительно удалим ее. Файлы для обмена на трекере предоставлены пользователями сайта, и администрация не несет ответственности за их содержание. Просьба не заливать файлы, защищенные авторскими правами, а также файлы нелегального содержания!