[ Today is free to download without increasing Download ]

DL-List and Torrent activity
-Толстяк на ринге / Here Comes the Boom (2012) [H.264] BDRip
«Юмор в тяжёлом весе»
- Русское название: Толстяк на ринге
Оригинальное название: Here Comes the Boom
Год выпуска: 2012
Производство: США
Жанр: Боевик, Комедия
Перевод: Дублированный [Лицензия]
Субтитры: Отсутствуют
Дата мировой премьеры: 10 октября 2012
Дата российской премьеры: 6 декабря 2012, «WDSSPR»
Дата выхода DVD релиза: 12 февраля 2013, «Columbia/Sony»
Дата выхода Blu-Ray релиза: 12 февраля 2013, «Columbia/Sony»
Режиссер: Фрэнк Корачи
Продюсер: Тодд Гарнер, Кевин Джеймс, Марти П. Юинг
Актеры: Кевин Джеймс, Сальма Хайек, Генри Уинклер, Грег Джерманн, Джо Роган, Гари Валентайн, Чарис Пемпенгко, Бас Раттен, Регги Ли, Марк ДеллаГротт и др.
Описание фильма:
Учитель биологии в средней школе подрабатывает бойцом в смешанных боевых искусствах, пытаясь собрать деньги, чтобы сохранить школьную музыкальную программу.

Рейтинг MPAA: PG (рекомендуется присутствие родителей)
Российское возрастное ограничение: 16+ (зрителям, достигшим 16 лет)
Продолжительность: 01:44:55
Качество видео: BDRip
Видеокодек: H.264/MPEG 4-AVC
Битрейт видео: ~1443 Kbps
Размер кадра: 720x384
Аудиокодек: AC3, 5.1 ch.
Битрейт аудио: 448 kbps


Unique ID                      : 220372968231234825251781119031835093724 (0xA5CA4A334839BB01955EDEA3067FEADC)
Complete name                  : Here.Comes.the.Boom.2012.D.BDRip-AVC.[NNM-Club.ru].mkv
Format                         : Matroska
Format version                 : Version 4 / Version 2
File size                      : 1.41 GiB
Duration                       : 1h 44mn
Overall bit rate               : 1 930 Kbps
Encoded date                   : UTC 2013-02-07 05:53:00
Writing application            : mkvmerge v6.0.0 ('Coming Up For Air') built on Jan 20 2013 09:52:00
Writing library                : libebml v1.3.0 + libmatroska v1.4.0
ID                             : 1
Format                         : AVC
Format/Info                    : Advanced Video Codec
Format profile                 : [url=mailto:High@L4.1]High@L4.1[/url]
Format settings, CABAC         : Yes
Format settings, ReFrames      : 9 frames
Codec ID                       : V_MPEG4/ISO/AVC
Duration                       : 1h 44mn
Bit rate                       : 1 443 Kbps
Width                          : 720 pixels
Height                         : 384 pixels
Display aspect ratio           : 1.85:1
Frame rate mode                : Constant
Frame rate                     : 23.976 fps
Color space                    : YUV
Chroma subsampling             : 4:2:0
Bit depth                      : 8 bits
Scan type                      : Progressive
Bits/(Pixel*Frame)             : 0.218
Stream size                    : 1.06 GiB (75%)
Default                        : Yes
Forced                         : No
ID                             : 2
Format                         : AC-3
Format/Info                    : Audio Coding 3
Mode extension                 : CM (complete main)
Format settings, Endianness    : Big
Codec ID                       : A_AC3
Duration                       : 1h 44mn
Bit rate mode                  : Constant
Bit rate                       : 448 Kbps
Channel(s)                     : 6 channels
Channel positions              : Front: L C R, Side: L R, LFE
Sampling rate                  : 48.0 KHz
Bit depth                      : 16 bits
Compression mode               : Lossy
Stream size                    : 336 MiB (23%)
Title                          : Russian.Dub
Default                        : Yes
Forced                         : No

-Время раздачи: круглосуточно до 20 скачавших


Топик был перенесен из форума Новинки кинопроката в форум Боевик

Display posts:    

Current time is: 27-Oct 00:16

All times are UTC + 3

You cannot post new topics in this forum
You cannot reply to topics in this forum
You cannot edit your posts in this forum
You cannot delete your posts in this forum
You cannot vote in polls in this forum
You cannot attach files in this forum
You cannot download files in this forum

The site does not give electronic versions of products, and is engaged only in a collecting and cataloguing of the references sent and published at a forum by our readers. If you are the legal owner of any submitted material and do not wish that the reference to it was in our catalogue, contact us and we shall immediately remove her. Files for an exchange on tracker are given by users of a site, and the administration does not bear the responsibility for their maintenance. The request to not fill in the files protected by copyrights, and also files of the illegal maintenance!