[ Сегодня идет свободное скачивание без начисления Download ]


Статистика раздачи
Нет
 
   
 
Top  
 
 
-Толстяк на ринге / Here Comes the Boom (2012) [H.264] BDRip
«Юмор в тяжёлом весе»
- Русское название: Толстяк на ринге
Оригинальное название: Here Comes the Boom
Год выпуска: 2012
Производство: США
Жанр: Боевик, Комедия
Перевод: Дублированный [Лицензия]
Субтитры: Отсутствуют
Дата мировой премьеры: 10 октября 2012
Дата российской премьеры: 6 декабря 2012, «WDSSPR»
Дата выхода DVD релиза: 12 февраля 2013, «Columbia/Sony»
Дата выхода Blu-Ray релиза: 12 февраля 2013, «Columbia/Sony»
Режиссер: Фрэнк Корачи
Продюсер: Тодд Гарнер, Кевин Джеймс, Марти П. Юинг
Актеры: Кевин Джеймс, Сальма Хайек, Генри Уинклер, Грег Джерманн, Джо Роган, Гари Валентайн, Чарис Пемпенгко, Бас Раттен, Регги Ли, Марк ДеллаГротт и др.
Описание фильма:
Учитель биологии в средней школе подрабатывает бойцом в смешанных боевых искусствах, пытаясь собрать деньги, чтобы сохранить школьную музыкальную программу.

Рейтинг MPAA: PG (рекомендуется присутствие родителей)
Российское возрастное ограничение: 16+ (зрителям, достигшим 16 лет)
Продолжительность: 01:44:55
Качество видео: BDRip
Видеокодек: H.264/MPEG 4-AVC
Битрейт видео: ~1443 Kbps
Размер кадра: 720x384
Аудиокодек: AC3, 5.1 ch.
Битрейт аудио: 448 kbps

MediaInfo

General
Unique ID                      : 220372968231234825251781119031835093724 (0xA5CA4A334839BB01955EDEA3067FEADC)
Complete name                  : Here.Comes.the.Boom.2012.D.BDRip-AVC.[NNM-Club.ru].mkv
Format                         : Matroska
Format version                 : Version 4 / Version 2
File size                      : 1.41 GiB
Duration                       : 1h 44mn
Overall bit rate               : 1 930 Kbps
Encoded date                   : UTC 2013-02-07 05:53:00
Writing application            : mkvmerge v6.0.0 ('Coming Up For Air') built on Jan 20 2013 09:52:00
Writing library                : libebml v1.3.0 + libmatroska v1.4.0
Video
ID                             : 1
Format                         : AVC
Format/Info                    : Advanced Video Codec
Format profile                 : [url=mailto:[email protected]][email protected][/url]
Format settings, CABAC         : Yes
Format settings, ReFrames      : 9 frames
Codec ID                       : V_MPEG4/ISO/AVC
Duration                       : 1h 44mn
Bit rate                       : 1 443 Kbps
Width                          : 720 pixels
Height                         : 384 pixels
Display aspect ratio           : 1.85:1
Frame rate mode                : Constant
Frame rate                     : 23.976 fps
Color space                    : YUV
Chroma subsampling             : 4:2:0
Bit depth                      : 8 bits
Scan type                      : Progressive
Bits/(Pixel*Frame)             : 0.218
Stream size                    : 1.06 GiB (75%)
Default                        : Yes
Forced                         : No
Audio
ID                             : 2
Format                         : AC-3
Format/Info                    : Audio Coding 3
Mode extension                 : CM (complete main)
Format settings, Endianness    : Big
Codec ID                       : A_AC3
Duration                       : 1h 44mn
Bit rate mode                  : Constant
Bit rate                       : 448 Kbps
Channel(s)                     : 6 channels
Channel positions              : Front: L C R, Side: L R, LFE
Sampling rate                  : 48.0 KHz
Bit depth                      : 16 bits
Compression mode               : Lossy
Stream size                    : 336 MiB (23%)
Title                          : Russian.Dub
Default                        : Yes
Forced                         : No
-Скриншоты:

-Время раздачи: круглосуточно до 20 скачавших

[Цитировать]

Топик был перенесен из форума Новинки кинопроката в форум Боевик
Henkok



Показать сообщения:    

Текущее время: 05-Дек 01:29

Часовой пояс: UTC + 3


Вы не можете начинать темы
Вы не можете отвечать на сообщения
Вы не можете редактировать свои сообщения
Вы не можете удалять свои сообщения
Вы не можете голосовать в опросах
Вы не можете прикреплять файлы к сообщениям
Вы не можете скачивать файлы

!ВНИМАНИЕ!
Сайт не предоставляет электронные версии произведений, а занимается лишь коллекционированием и каталогизацией ссылок, присылаемых и публикуемых на форуме нашими читателями. Если вы являетесь правообладателем какого-либо представленного материала и не желаете, чтобы ссылка на него находилась в нашем каталоге, свяжитесь с нами, и мы незамедлительно удалим ее. Файлы для обмена на трекере предоставлены пользователями сайта, и администрация не несет ответственности за их содержание. Просьба не заливать файлы, защищенные авторскими правами, а также файлы нелегального содержания!