[ Today is free to download without increasing Download ]

DL-List and Torrent activity
-Толстяк на ринге / Here Comes the Boom (2012) HDRip
«Юмор в тяжёлом весе»
- Русское название: Толстяк на ринге
Оригинальное название: Here Comes the Boom
Год выпуска: 2012
Производство: США
Жанр: Боевик, Комедия
Перевод: Дублированный [Лицензия]
Дата мировой премьеры: 10 октября 2012
Дата российской премьеры: 6 декабря 2012, «WDSSPR»
Дата выхода DVD релиза: 12 февраля 2013, «Columbia/Sony»
Дата выхода Blu-Ray релиза: 12 февраля 2013, «Columbia/Sony»
Режиссер: Фрэнк Корачи
Продюсер: Тодд Гарнер, Кевин Джеймс, Марти П. Юинг
Актеры: Кевин Джеймс, Сальма Хайек, Генри Уинклер, Грег Джерманн, Джо Роган, Гари Валентайн, Чарис Пемпенгко, Бас Раттен, Регги Ли, Марк ДеллаГротт и др.
Описание фильма:
Учитель биологии в средней школе подрабатывает бойцом в смешанных боевых искусствах, пытаясь собрать деньги, чтобы сохранить школьную музыкальную программу.

Рейтинг MPAA: PG (рекомендуется присутствие родителей)
Российское возрастное ограничение: 16+ (зрителям, достигшим 16 лет)
Продолжительность: 01:44:55
Качество видео: HDRip
Видеокодек: XviD
Битрейт видео: ~800 Kbps
Размер кадра: 720x384
Аудиокодек: MP3, 2 ch
Битрейт аудио: 128 kbps


Complete name                  : Here.Comes.the.Boom.2012.D.HDRip.700Mb.avi
Format                         : AVI
Format/Info                    : Audio Video Interleave
File size                      : 703 MiB
Duration                       : 1h 44mn
Overall bit rate               : 937 Kbps
Writing application            : VirtualDubMod (build 2542/release)
Writing library                : VirtualDubMod build 2542/release
ID                             : 0
Format                         : MPEG-4 Visual
Format profile                 : Advanced Simple@L5
Format settings, BVOP          : 2
Format settings, QPel          : No
Format settings, GMC           : No warppoints
Format settings, Matrix        : Default (MPEG)
Muxing mode                    : Packed bitstream
Codec ID                       : XVID
Codec ID/Hint                  : XviD
Duration                       : 1h 44mn
Bit rate                       : 800 Kbps
Width                          : 720 pixels
Height                         : 384 pixels
Display aspect ratio           : 1.85:1
Frame rate                     : 23.976 fps
Color space                    : YUV
Chroma subsampling             : 4:2:0
Bit depth                      : 8 bits
Scan type                      : Progressive
Compression mode               : Lossy
Bits/(Pixel*Frame)             : 0.121
Stream size                    : 600 MiB (85%)
Writing library                : XviD 1.2.1 (UTC 2008-12-04)
ID                             : 1
Format                         : MPEG Audio
Format version                 : Version 1
Format profile                 : Layer 3
Mode                           : Joint stereo
Codec ID                       : 55
Codec ID/Hint                  : MP3
Duration                       : 1h 44mn
Bit rate mode                  : Constant
Bit rate                       : 128 Kbps
Channel(s)                     : 2 channels
Sampling rate                  : 48.0 KHz
Compression mode               : Lossy
Stream size                    : 96.1 MiB (14%)
Alignment                      : Aligned on interleaves
Interleave, duration           : 42 ms (1.00 video frame)
Interleave, preload duration   : 504 ms
Writing library                : LAME3.99.4

-Время раздачи: круглосуточно до 20 скачавших


Топик был перенесен из форума Новинки кинопроката в форум Боевик

Display posts:    

Current time is: 22-Oct 19:10

All times are UTC + 3

You cannot post new topics in this forum
You cannot reply to topics in this forum
You cannot edit your posts in this forum
You cannot delete your posts in this forum
You cannot vote in polls in this forum
You cannot attach files in this forum
You cannot download files in this forum

The site does not give electronic versions of products, and is engaged only in a collecting and cataloguing of the references sent and published at a forum by our readers. If you are the legal owner of any submitted material and do not wish that the reference to it was in our catalogue, contact us and we shall immediately remove her. Files for an exchange on tracker are given by users of a site, and the administration does not bear the responsibility for their maintenance. The request to not fill in the files protected by copyrights, and also files of the illegal maintenance!