[ Today is free to download without increasing Download ]

DL-List and Torrent activity
Complete: [ 3 ]
Алиса в Зазеркалье / Alice Through the Looking Glass (2016) Страна: США
Производство: Legend3D, Roth Films, Tim Burton Productions, Walt Disney Pictures
Год выпуска: 2016
Жанр: фэнтези, приключения, семейный
Продолжительность: 01:52:59
Режиссер: Джеймс Бобин
Авторы сценария: Линда Вулвертон, Льюис Кэрролл
В ролях: Миа Васиковска, Джонни Депп, Хелена Бонем Картер, Энн Хэтэуэй, Саша Барон Коэн, Рис Иванс, Мэтт Лукас, Линдси Дункан
Описание: На этот раз главной героине предстоит отправиться в путешествие во времени, полное неожиданностей и ярких открытий, чтобы спасти своего друга, Безумного Шляпника...

Перевод: Профессиональный (полное дублирование) | чистый звук
Субтитры: нет-Качество: WEB-DLRip 1080р
Формат: МКV
Видео кодек: AVC
Аудио кодек: АС3
Видео: 1920x1038 (1.85:1), 23.976 fps, MPEG-4 AVC ~4 445 kbps avg
Аудио: 48.0 kHz, AC3 Dolby Digital, 2/0 (L,R) ch, ~384 kbps
Дата премьеры (мир): 25 мая 2016
Дата премьеры (РФ): 26 мая 2016, «WDSSPR»

Media Info

Unique ID : 178415192442376885891755185022193784499 (0x8639842371C3A0519340994C0BBA56B3)
Complete name : Alice.2O16.D.WEB-DL.1O8Op_KOSHARA.mkv
Format : Matroska
Format version : Version 2
File size : 3.89 GiB
Duration : 1h 52mn
Overall bit rate mode : Variable
Overall bit rate : 4 927 Kbps
Encoded date : UTC 2016-09-17 01:25:09
Writing application : mkvmerge v8.3.0 ('Over the Horizon') 64bit
Writing library : libebml v1.3.1 + libmatroska v1.4.2
ID : 1
Format : AVC
Format/Info : Advanced Video Codec
Format profile : High@L4
Format settings, CABAC : Yes
Format settings, ReFrames : 4 frames
Duration : 1h 52mn
Bit rate mode : Variable
Bit rate : 4 445 Kbps
Maximum bit rate : 7 000 Kbps
Width : 1 920 pixels
Height : 1 038 pixels
Display aspect ratio : 1.85:1
Frame rate mode : Constant
Frame rate : 23.976 fps
Standard : Component
Color space : YUV
Chroma subsampling : 4:2:0
Bit depth : 8 bits
Scan type : Progressive
Bits/(Pixel*Frame) : 0.093
Stream size : 3.51 GiB (90%)
Default : Yes
Forced : No
Color range : Limited
Color primaries : BT.709
Transfer characteristics : BT.709
Matrix coefficients : BT.709
ID : 2
Format : AC-3
Format/Info : Audio Coding 3
Mode extension : CM (complete main)
Format settings, Endianness : Big
Codec ID : A_AC3
Duration : 1h 52mn
Bit rate mode : Constant
Bit rate : 384 Kbps
Channel(s) : 2 channels
Channel positions : Front: L R
Sampling rate : 48.0 KHz
Bit depth : 16 bits
Compression mode : Lossy
Stream size : 310 MiB (8%)
Language : Russian
Default : Yes
Forced : No



Display posts:    

Current time is: 24-Oct 10:00

All times are UTC + 3

You cannot post new topics in this forum
You cannot reply to topics in this forum
You cannot edit your posts in this forum
You cannot delete your posts in this forum
You cannot vote in polls in this forum
You cannot attach files in this forum
You cannot download files in this forum

The site does not give electronic versions of products, and is engaged only in a collecting and cataloguing of the references sent and published at a forum by our readers. If you are the legal owner of any submitted material and do not wish that the reference to it was in our catalogue, contact us and we shall immediately remove her. Files for an exchange on tracker are given by users of a site, and the administration does not bear the responsibility for their maintenance. The request to not fill in the files protected by copyrights, and also files of the illegal maintenance!