[ Сегодня идет свободное скачивание без начисления Download ]


Статистика раздачи
Качаю: [ 3 ]
Скачал: [ 3 ]
 
   
 
Top  
 
 
Евгений Волосатов | Супер-игры на С# (2014) PCRec 720p - Автор (режиссер): Евгений Волосатов
Производство: videosharp.info
Жанр: Программирование, C#
Описание:
Многие любят играть в игрушки.
Однако играть в игрушки, которые создал сам, ещё интереснее!
Есть отличная идея!
Будем использовать увлечение играми для изучения программирования.
Ты сам не заметишь, как «за игрой» прокачиваются навыки программирования.
Создание более интересных и сложных игровых программ, некоторые игры пишутся за несколько уроков с подробным анализом: составление технического анализа, проектирование интерфейса, создание блок-схемы, формирование отдельных классов, создание и тестирование программы.
Продолжительность: 15:11:13
Качество видео: PCRec
Видео: AVC/H.264, 1280х720, ~3410 Kbps
Аудио: AAC, 2 ch, 192 Kbps, VBR

Mediainfo:

General
Complete name                            : C:\Torrents\Волосатов Евгений - Супер-игры на С# (2014)\1 Игры со словами.mp4
Format                                   : MPEG-4
Format profile                           : Base Media / Version 2
Codec ID                                 : mp42
File size                                : 537 MiB
Duration                                 : 1h 6mn
Overall bit rate mode                    : Variable
Overall bit rate                         : 1 128 Kbps
Encoded date                             : UTC 2015-05-16 17:53:15
Tagged date                              : UTC 2015-05-16 17:53:15
gsst                                     : 0
gstd                                     : 3991695
gssd                                     : BADC23A07HH1432504152161242
gshh                                     : r7---sn-n8v7zn7d.googlevideo.com
Video
ID                                       : 1
Format                                   : AVC
Format/Info                              : Advanced Video Codec
Format profile                           : [url=mailto:[email protected]][email protected][/url]
Format settings, CABAC                   : Yes
Format settings, ReFrames                : 1 frame
Format settings, GOP                     : M=1, N=60
Codec ID                                 : avc1
Codec ID/Info                            : Advanced Video Coding
Duration                                 : 1h 6mn
Bit rate                                 : 933 Kbps
Maximum bit rate                         : 3 410 Kbps
Width                                    : 1 280 pixels
Height                                   : 720 pixels
Display aspect ratio                     : 16:9
Frame rate mode                          : Constant
Frame rate                               : 30.000 fps
Color space                              : YUV
Chroma subsampling                       : 4:2:0
Bit depth                                : 8 bits
Scan type                                : Progressive
Bits/(Pixel*Frame)                       : 0.034
Stream size                              : 444 MiB (83%)
Tagged date                              : UTC 2015-05-16 17:53:53
Audio
ID                                       : 2
Format                                   : AAC
Format/Info                              : Advanced Audio Codec
Format profile                           : LC
Codec ID                                 : 40
Duration                                 : 1h 6mn
Bit rate mode                            : Variable
Bit rate                                 : 192 Kbps
Maximum bit rate                         : 201 Kbps
Channel(s)                               : 2 channels
Channel positions                        : Front: L R
Sampling rate                            : 44.1 KHz
Compression mode                         : Lossy
Stream size                              : 91.4 MiB (17%)
Title                                    : IsoMedia File Produced by Google, 5-11-2011
Encoded date                             : UTC 2015-05-16 17:53:38
Tagged date                              : UTC 2015-05-16 17:53:53

Дополнительная информация:

Содержание:
1. Игры со словами
2. Виселка
3. Бот для виселицы
3. Крестики-Нолики
4. Кнопки
5. Алгоритм
6. Картинка
7. 2048 — Учимся играть
8. 2048 — Интерфейс
9. 2048 — Логика
10. Змейка
11. Стрелялка
12. Арканоид — Уровень и ракетка
13. Арканоид — Шарик и кирпичики
14. Шарики, часть 0. Вступление
15. Шарики, часть 1. Анализ игры + интерфейс
16. Шарики, часть 2. Создание логики игры + реализация.
17. Шарики, часть 3. Алгоритм поиска пути + отображение
18. Шарики, часть 4. Алгоритм поиска линий из 5 шариков.
Скриншоты:

[Цитировать]



Показать сообщения:    

Текущее время: 05-Дек 21:44

Часовой пояс: UTC + 3


Вы не можете начинать темы
Вы не можете отвечать на сообщения
Вы не можете редактировать свои сообщения
Вы не можете удалять свои сообщения
Вы не можете голосовать в опросах
Вы не можете прикреплять файлы к сообщениям
Вы не можете скачивать файлы

!ВНИМАНИЕ!
Сайт не предоставляет электронные версии произведений, а занимается лишь коллекционированием и каталогизацией ссылок, присылаемых и публикуемых на форуме нашими читателями. Если вы являетесь правообладателем какого-либо представленного материала и не желаете, чтобы ссылка на него находилась в нашем каталоге, свяжитесь с нами, и мы незамедлительно удалим ее. Файлы для обмена на трекере предоставлены пользователями сайта, и администрация не несет ответственности за их содержание. Просьба не заливать файлы, защищенные авторскими правами, а также файлы нелегального содержания!