[ Сегодня идет свободное скачивание без начисления Download ]


Статистика раздачи
Нет
 
   
 
Top  
 
 
-Джеймс Бонд. Агент 007 / James Bond- Русское название: Джеймс Бонд. Агент 007
Оригинальное название: James Bond
Год выпуска: 1962-2008
Страна: США, Великобритания
Жанр: Боевик, триллер, приключения
Описание фильма:
Джеймс Бонд, коммандер ВМФ Великобритании, также известный как «агент 007» — главный персонаж романов британского писателя Яна Флеминга о вымышленном агенте MI6. Получил широкую популярность после начала экранизации романов Флеминга. Серия фильмов о Джеймсе Бонде именуется «бондианой» и является одной из самых продолжительных серий фильмов в истории. С 1962 по 2012 годы вышли 22 фильма (в среднем один фильм в два года). Серия принесла её создателям более 6 млрд долл. США, став вторым по успешности киносериалом в истории.
Всего расход студий на съёмки и рекламу Бондианы составили $1 747 700 000, а прибыль (кассовые сборы и пр.) составила $6 712 721 735.

Рейтинг PG-13 - Детям до 13 лет просмотр не желателен
Роль Джеймса Бонда в фильмах Бондианы сыграли:
1 .Шон Коннери (1962—1967; 1971)
2. Джордж Лэзенби (1969)
3. Роджер Мур (1973—1985)
4. Тимоти Далтон (1987—1989)
5. Пирс Броснан (1995—2002)
6. Дэниел Крэйг (2006—2014)
Продолжительность: 22 фильма ~ 44:26:38-Содержание:-Джеймс Бонд. Агент 007: Доктор Ноу / James Bond: Dr. No (1962) BDRip- Русское название: Джеймс Бонд. Агент 007: Доктор Ноу
Оригинальное название: James Bond: Dr. No
Год выпуска: 1962
Жанр: Боевик, Триллер, Приключения
Описание фильма:
Бонду дано задание выяснить что является источником электронных помех в компьютерах американских пусковых шахт на мысе Канаверал. По агентурным данным мозговой центр вражеских сил находится на Ямайке. Бонд незамедлительно выдвигается туда.
В процессе расследования ему придется столкнуться с могущественной структурой СПЕКТР и ее представителем Доктором Ноу, готовым пойти на все, лишь бы держать весь мир в своих металлических руках. И только Бонд и его верный Валльтер ППК могут остановить злые силы на знойном океанском побережье.
Режиссер: Теренс Янг
Актеры: Шон Коннери, Урсула Андресс, Джозеф Уайзмен, Джек Лорд, Бернард Ли, Энтони Даусон, Зена Маршалл, Джон Кицмиллер, Eunice Gayson, Лоис Максуэлл, Питер Бертон, Ивонн Сима, Мишель Мок, Marguerite LeWars, William Foster-Davis, Dolores Keator, Регги Картер, Louis Blaazer, Colonel Burton, Anthony Chinn, Eric Coverley
Продолжительность: 01:49:50
Перевод: Многоголосый закадровый + Одноголосый закадровый + Оригинал
Субтитры: Русские, английские

Видеокодек: MPEG-4 AVC/H.264
Битрейт видео: ~6 731 Kbps
Размер кадра: 1200x720p
Качество видео: BDRip
Аудиокодек: AC3+DTS
Аудио 1: Russian: 48 kHz, AC3, 3/2 (L,C,R,l,r) + LFE ch, ~640.00 kbps avg |Многоголосый закадровый, Киномания|
Аудио 2: Ukrainian: 48 kHz, AC3, 2/0 (L,R) ch, ~256.00 kbps avg |Многоголосый закадровый|
Аудио 3: Russian: 48 kHz, DTS, 3/2 (L,C,R,l,r) + LFE ch, ~1536.00 kbps avg |Многоголосый закадровый, Карусель|
Аудио 4: Russian: 48 kHz, DTS, 3/2 (L,C,R,l,r) + LFE ch, ~1536.00 kbps avg |Многоголосый закадровый|
Аудио 5: Russian: 48 kHz, DTS, 3/2 (L,C,R,l,r) + LFE ch, ~1536.00 kbps avg |Одноголосый закадровый, Ю.Живов|
Аудио 6: English: 48 kHz, DTS, 3/2 (L,C,R,l,r) + LFE ch, ~1536.00 kbps avg |Оригинал|Скриншоты:

Знаете ли вы, что...

* Одной из самых больших проблем для съемочной группы стала очень жаркая и влажная погода на Ямайке, где проходили основные съемки фильма.
* Работника оружейного склада, который выдает Бонду его «Вальтер ППК» - Майор Бутройт. В следующем фильме «Из России с любовью» его роль исполняет Десмонд Левелин. Человек, снабжающий Бонда оружием, начиная с фильма «Голдфингер» (1964), навсегда будет известен как «Кью» - «Q».
* Сильвия Тренч - девушка, которую Бонд встречает в первом фильме в казино, была придумана как сквозной персонаж на всю «бондиану». Она вновь появилась в картине «Из России с любовью» (1963), но потом ее удалили из остальных сценариев. Тем не менее, Тренч осталась рекордсменкой - она единственная появилась сразу в двух сериях эпопеи.
* Художник по титрам Морис Биндер придумал знаменитые силуэты внутри ствола пистолета за несколько минут, просто поместив камеру у конца пистолетного дула.
* Мужской силуэт в дуле пистолета в знаменитой заставке - не Коннери, а его дублер Боб Симмонс. В начальных титрах Коннери не снимался вплоть до 1965 года - фильма «Шаровая молния».
* Копия картины с изображением герцога Веллингтонского, работы Франсиско Гойи, украденная в 1960 году и до сих пор не найденная, находится в фильме в резиденции доктора Но. На момент съемок фильма кража этой работы была величайшей загадкой, и о ней слышал каждый британец. Сценаристка Джоанна Харвуд предложила «приписать» это преступление Доктору Но.
* Хотя логово доктора Но было расположено в местечке Краб Ки, сцены фильма снимались в различных частях Ямайки: на пляже, где снималась знаменитая сцена, в которой Урсула Андресс выходит из моря и встречает Джеймса, и который сейчас называется «Пляж Джеймса Бонда», в восточной части Очо Риос и на пляжах Лафин Фолз. «Пляж Джеймса Бонда» - Laughing Waters Beach был частным владением и принадлежал госпоже Минни Симпсон из Очо Риос. Госпожа Симпсон была поклонницей романов Яна Флеминга.
* После выхода «Доктора Но» в Италии, Ватикан издал специальное коммюнике, в котором выразил свое несогласие с моральными принципами, исповедуемыми в картине.
* Маргарит Ле Варс, сыгравшая в фильме девушку-фотографа Анабеллу Чанг, работала стюардессой. Теренс Янг подошел к ней с банальным вопросом «Хочет ли она сняться в кино?». Девушка хотела. Ее шурин Реджи Картер также снялся в фильме, сыграв роль шофера - подручного доктора Но, который вез Джеймса Бонда из аэропорта.
* В основу романа «Доктора Но» лег сценарий к телефильму «Коммандер Ямайка», который Флеминг написал для ямайского телевидения. Главным героем там был тоже тайный агент, тоже по званию коммандер, который вступает в схватку с неким архизлодеем, живущем на неком острове. Но дело заглохло, и Флеминг превратил сценарий телефильма в книгу о Бонде.
* Ян Флеминг был так покорен красотой Урсулы Андресс, что в своем романе «На секретной службе Ее Величества» (1963) он описал героиню Трейси Ди Виченцо (в экранизации романа ее сыграла Дайана Ригг), как девушку, очень похожую на Андресс.
* Все женские голоса в картине, за исключением мисс Манипени, принадлежат одной и той же малоизвестной английской актрисе - Диане Коппланд.
* Шон Коннери носит парик во всех фильмах Бондианы, начиная с «Доктора Но».
* Шон Коннери был выбран на роль Джеймса Бонда после того, как жена продюсера «бондианы» Альберта Р. Брокколи увидела молодого Коннери в фильме 1959 года «Дарби О'Гилл и маленький народец». Альберту Брокколи также понравился Коннери в этом фильме, особенно его впечатлила драка Шон Коннери с деревенским хулиганом в кульминационной сцене фильма.
* Работники японского представительства студии «United Artists» неправильно поняли название фильма, прочитав его как «Dr.? No!» Японцы напечатали постеры с иероглифами, обозначавшими «Нам не нужен доктор!» Ошибку обнаружили в самый последний момент.
* Вольф Манкович был одним из сценаристов «Доктора Но», но ему настолько не понравился окончательный вариант сценария, что Манкович изъял свое имя из титров. Зато позже отомстил - написал сценарий фильма-пародии на агента 007 «Казино «Рояль» (1967) в котором также снялась Урсула Андресс - первая девушка Бонда.
* Ныне покойный режиссер Джон Франкенхаймер в прошлом утверждал, что Альберт Брокколи предлагал ему роль Бонда.
* Знаменитую фотографию, где Коннери держит пистолет на уровне груди, пришлось переснимать в последний момент. «Вальтер ППК» забыли на студии. К счастью, у фотографа с собой оказался пневматический пистолет - с ним Коннери и снялся.

...из книги «3500 кинорецензий»

Сергей Кудрявцев 7/10
Шпионско-приключенческий боевик с элементами иронии
Джеймс Бонд, агент 007 британской разведки, должен расстроить планы некоего доктора Но, желающего завладеть всем миром после вмешательства своей тайной организации СПЕКТР в ракетный комплекс США. Сюжет, который в разных вариантах потом будет повторен в других сериях «бондианы», всё же впервые был использован именно в фильме Теренса Янга, ставшего родоначальником популярного сериала (он также снял вторую и четвёртую части этого цикла). Обращаясь ретроспективно к истокам своего рода шпионского кинокомикса, уже зная, как он развивался в дальнейшем, можно сказать, что в техническом отношении «Доктор Но» кажется старомодным — и это ещё касается бытового антуража, одежды героев и т. п. Чуть наивны сцены погонь, драк и других эффектных действий, что может вызвать только улыбку у зрителей, которые привыкли к современным жёстким боевикам.
Но всё-таки здесь появился новый тип киногероя — «иронический рыцарь без страха и упрека», конечно, супермен, красавец-мужчина, который всегда побеждает противников, но в большей степени — благодаря исключительному везению, собственной изворотливости и никогда не теряемому чувству юмора в самых затруднительных и, кажется, вовсе безвыходных положениях. Молодой, тогда 32-летний Шон Коннери, первый исполнитель роли агента 007, пока ещё примеривается к образу удачливого и невозмутимого джентльмена в элегантном костюме, который выигрывает отнюдь не сразу, но непременно — в последние секунды, причём покоряет женские сердца, подчас сам рискованно попадая под власть прелестных чар. Джеймс Бонд словно намеренно усложняет свою жизнь, превращая её в бесконечную цепь приключений, а потом выпутывается, оказавшись уже на волосок от смерти. «Герой безгеройного времени» (по точному определению Майи Туровской) вряд ли слышал о «пограничной ситуации» и проблемах экзистенции. Но этот не совсем серьёзный, авантюрный персонаж-игрок ведёт себя словно немножко пародийный экзистенциальный индивид, который гуляет как ни в чём не бывало по краю пропасти, ощущая полноту и осмысленность такого опасного бытия.
Хотя кассовые сборы «Доктора Но», особенно в США (только $16,1 млн. — впрочем, по нынешним ценам эта сумма составила бы около $160 млн.), в количественном отношении не были впечатляющими, первая серия «бондианы» смогла превысить свой смехотворный бюджет (всего $1,1 млн.) в 54 раза (!) благодаря мировому прокату. Поэтому неудивительно, что кинематографисты ринулись срочно снимать продолжения об агенте 007. За последующие сорок пять лет появилась ещё 21 серия, то есть в среднем почти по фильму за два года.
1991

MediaInfo:

General
Complete name : E:\James Bond Collection\Часть 1. 007.Dr.No.1962.mkv
Format : Matroska
File size : 10.7 GiB
Duration : 1h 49mn
Overall bit rate : 13.9 Mbps
Encoded date : UTC 2008-11-21 10:41:03
Writing application : mkvmerge v2.1.0 ('Another Place To Fall') built on Aug 19 2007 13:40:07
Writing library : libebml v0.7.7 + libmatroska v0.8.1
Video
ID : 1
Format : AVC
Format/Info : Advanced Video Codec
Format profile : High@L4.1
Format settings, CABAC : Yes
Format settings, ReFrames : 6 frames
Muxing mode : Container profile=Unknown@4.1
Codec ID : V_MPEG4/ISO/AVC
Duration : 1h 49mn
Bit rate : 6 731 Kbps
Nominal bit rate : 7 000 Kbps
Width : 1 200 pixels
Height : 720 pixels
Display aspect ratio : 1.667
Frame rate : 23.976 fps
Resolution : 8 bits
Colorimetry : 4:2:0
Scan type : Progressive
Bits/(Pixel*Frame) : 0.325
Stream size : 5.16 GiB (48%)
Writing library : x264 core 60 r886M 1075536
Encoding settings : cabac=1 / ref=6 / deblock=1:-3:-3 / analyse=0x3:0x133 / me=umh / subme=7 / brdo=1 / mixed_ref=1 / me_range=32 / chroma_me=1 / trellis=0 / 8x8dct=1 / cqm=2 / deadzone=8,8 / chroma_qp_offset=0 / threads=6 / nr=0 / decimate=1 / mbaff=0 / fgo=6 / bframes=16 / b_pyramid=0 / b_adapt=1 / b_bias=0 / direct=1 / wpredb=1 / bime=1 / keyint=250 / keyint_min=25 / scenecut=40(pre) / rc=2pass / bitrate=7000 / ratetol=1.0 / rceq='blurCplx^(1-qComp)' / qcomp=1.00 / qpmin=10 / qpmax=51 / qpstep=4 / cplxblur=20.0 / qblur=0.5 / ip_ratio=1.40 / pb_ratio=1.18 / aq=2:1.00
Language : English
Audio #1
ID : 2
Format : AC-3
Format/Info : Audio Coding 3
Codec ID : A_AC3
Duration : 1h 49mn
Bit rate mode : Constant
Bit rate : 640 Kbps
Channel(s) : 6 channels
Channel positions : Front: L C R, Surround: L R, LFE
Sampling rate : 48.0 KHz
Stream size : 503 MiB (5%)
Title : AC3 5.1 640k Mnogogoloska (Kinomania)
Language : Russian
Audio #2
ID : 3
Format : AC-3
Format/Info : Audio Coding 3
Codec ID : A_AC3
Duration : 1h 49mn
Bit rate mode : Constant
Bit rate : 256 Kbps
Channel(s) : 2 channels
Channel positions : L R
Sampling rate : 48.0 KHz
Stream size : 201 MiB (2%)
Title : AC3 2.0 256k Mnogogoloska (Inter)
Language : Ukrainian
Audio #3
ID : 4
Format : DTS
Format/Info : Digital Theater Systems
Codec ID : A_DTS
Duration : 1h 49mn
Bit rate mode : Constant
Bit rate : 1 510 Kbps
Channel(s) : 6 channels
Channel positions : Front: L C R, Surround: L R, LFE
Sampling rate : 48.0 KHz
Resolution : 24 bits
Stream size : 1.16 GiB (11%)
Title : DTS 5.1 1536k Mnogogoloska (Karusel)
Language : Russian
Audio #4
ID : 5
Format : DTS
Format/Info : Digital Theater Systems
Codec ID : A_DTS
Duration : 1h 49mn
Bit rate mode : Constant
Bit rate : 1 510 Kbps
Channel(s) : 6 channels
Channel positions : Front: L C R, Surround: L R, LFE
Sampling rate : 48.0 KHz
Resolution : 24 bits
Stream size : 1.16 GiB (11%)
Title : DTS 5.1 1536k Mnogogoloska (Glanz & Friends)
Language : Russian
Audio #5
ID : 6
Format : DTS
Format/Info : Digital Theater Systems
Codec ID : A_DTS
Duration : 1h 49mn
Bit rate mode : Constant
Bit rate : 1 510 Kbps
Channel(s) : 6 channels
Channel positions : Front: L C R, Surround: L R, LFE
Sampling rate : 48.0 KHz
Resolution : 24 bits
Stream size : 1.16 GiB (11%)
Title : DTS 5.1 1536k Odnogoloska (Givov)
Language : Russian
Audio #6
ID : 7
Format : DTS
Format/Info : Digital Theater Systems
Codec ID : A_DTS
Duration : 1h 49mn
Bit rate mode : Constant
Bit rate : 1 510 Kbps
Channel(s) : 6 channels
Channel positions : Front: L C R, Surround: L R, LFE
Sampling rate : 48.0 KHz
Resolution : 24 bits
Stream size : 1.16 GiB (11%)
Title : DTS 5.1 1536kbps
Language : English
Text #1
ID : 8
Format : UTF-8
Codec ID : S_TEXT/UTF8
Codec ID/Info : UTF-8 Plain Text
Language : Russian
Text #2
ID : 9
Format : UTF-8
Codec ID : S_TEXT/UTF8
Codec ID/Info : UTF-8 Plain Text
Language : English
Из России с любовью / From Russia with Love (1963) BDRip- Русское название: Из России с любовью
Оригинальное название: From Russia with Love
Год выпуска: 1963
Жанр: Боевик, Приключения, Мелодрама
Описание фильма:
Второе задание для Джеймса Бонда это спасти и вывезти из социалистического государства русского агента, красавицу владеющую тайной сверх секретного шифровального аппарата Лектор, а также сам аппарат. В легко протекающую комбинацию вклинивается неизвестный до сих пор агент № 1 Спектра, Эрнест Ставро Блофелд.
В его задачу входит не только обострить отношения между Великобританией и Советским Союзом, вернуть в Россию Лектор за большое вознаграждение, но также отомстить за смерть Доктора Ноу, заманив Бонда в хитроумную ловушку.
Режиссер: Теренс Янг
Актеры: Шон Коннери, Даниэла Бьянки, Педро Армендариз, Лотти Леня, Роберт Шоу, Бернард Ли, Eunice Gayson, Уолтер Готелл, Френсис Де Фолфф, Джордж Пастелл, Nadja Regin, Лоис Максуэлл, Ализа Гар, Мартин Бесвик, Vladek Sheybal, Lisa Guiraut, Hasan Ceylan, Фред Хэггерти, Невилл Джейсон, Питер Бэйлисс, Nusret Ataer
Продолжительность: 01:55:12
Перевод: Многоголосый закадровый + Oдноголосый закадровый + оригинал
Субтитры: Русские, английские

Видеокодек: MPEG-4 AVC/H.264
Битрейт видео: ~5 884 Kbps
Размер кадра: 1200x720p
Качество видео: BDRip
Аудиокодек: AC3+DTS
Аудио 1: Russian: 48 kHz, AC3, 3/2 (L,C,R,l,r) + LFE ch, ~640.00 kbps avg |Многоголосый закадровый, Киномания|
Аудио 2: Ukrainian: 48 kHz, AC3, 2/0 (L,R) ch, ~256.00 kbps avg |Многоголосый закадровый|
Аудио 3: Russian: 48 kHz, DTS, 3/2 (L,C,R,l,r) + LFE ch, ~1536.00 kbps avg |Многоголосый закадровый, Карусель|
Аудио 4: Russian: 48 kHz, DTS, 3/2 (L,C,R,l,r) + LFE ch, ~1536.00 kbps avg |Одноголосый закадровый, Ю.Живов|
Аудио 5: English: 48 kHz, DTS, 3/2 (L,C,R,l,r) + LFE ch, ~1536.00 kbps avg |Оригинал|Скриншоты:

Знаете ли вы, что...

* Шахматная партия между «Kronsteen» и «McAdam» в начале фильма основана на партии, сыгранной Давидом Бронштейном и Борисом Спасским . Тем не менее, «Kronsteen» в фильме выигравший партию, на самом деле делал ходы, в реальной жизни сделанные Спасским.
* В оригинале фильма есть два диалога на русском языке: первый, это диалог Татьяны с её подругами, а второй - это реплика Криленку.
* У актера Педро Армендариса, исполнившего в фильме роль Али Керим Бея, был обнаружен рак. Во время съемок «Из России с любовью» его состояние ухудшилось, но он все же закончил работу над картиной. Позже, в больнице он покончил жизнь самоубийством.
* Самый любимый фильм Шона Коннери из Бондианы - «Из России с любовью».
* В «Из России с любовью» второй и последний раз в «бондиане» появилась Сильвия Тренч, хотя планировалось постоянное участие этой актрисы в нашумевшем проекте.
* Две актрисы эпизодических ролей в этом фильме появились и в следующих фильмах Бондианы. Надя Реджин, игравшая подружку Керима, появилась в начале фильма «Голдфингер». Она сыграла танцовщицу из бара. А Мартина Бесвик, игравшая одну из цыганок, появляется в фильме «Шаровая молния» в роли Паулы.
* В фильме Крыленко пытается убежать через тайное окно, которое скрыто в стене с рекламой фильма «Call Me Bwana» 1963 года. Продюсерами этого фильма также являются Гарри Зальтцман и Альберт Брокколи. На рекламе фильма изображена Анита Экберг, звезда картины. В романе Яна Флеминга «Из России с любовью» тайное окно открывалось в стене с афишей фильма Мэрилин Монро «Ниагара» 1953 года.
* С этого фильма начинается традиция, по которой каждая картина о Джеймсе Бонде заканчивается названием следующего фильма из этой серии. А прекратилась она на фильме «А View to a Kill» (1985).
* Согласно книге Уильяма Манчестера «Смерть президента» (1964) этот фильм стал последней картиной, которую посмотрел Джон Ф.Кеннеди. Случилось это 20 ноября 1963 года в Белом доме.
* Жену продюсера Гарри Зальтцмана можно увидеть в фильме, она высовывается из окна Восточного экспресса. В следующем окне появляется Роберт Шоу (Неш).
* Автор романов о Джеймсе Бонде Ян Флеминг появился в одном из эпизодов фильма. Его можно увидеть стоящим рядом с поездом. На нем серые брюки и белый свитер.
* Всех актрис, занятых в картине, за исключением исполнительницы роли мисс Маннипени Лоис Максвелл, озвучила одна и та же английская актриса, имя которой в титрах не указано.
* Сцена в катакомбах Стамбула подразумевала наличие крыс. Согласно английским законам, в фильме нельзя снимать диких крыс. Их попытались заменить лабораторными белыми крысами, покрытыми порошком какао. Однако животные тёрлись друг о друга, и пудра осыпалась. Кроме того, животные вылизывали друг друга начисто в течение одного дубля. Пришлось снимать сцену в Мадриде, где крыс предоставил местный крысолов.
* Эпизодов с вертолетами было отснято так много, что они не только не вошли все в кинокартину, но еще и были использованы в некоторых других британских фильмах и телешоу.
* С вертолетом связан еще один опасный инцидент. Машина, на борту которой находился режиссер Теренс Янг, потерпела аварию и упала в водоем. При этом режиссер на некоторое время оказался запертым под кокпитом и оставался там, пока его не спасли. Сразу же после своего счастливого избавления Янг, несмотря на поврежденную руку, встал у камеры и продолжил руководить творческим процессом.
* Во время съемок сцены с вертолетом неопытный пилот подлетел к Шону Коннери слишком близко, этот случай чуть было не закончился трагедией.
* В этой ленте впервые появился персонаж Кью в исполнении Десмонда Ллевелина. Всего Ллевелин сыграл в 18 фильмах сериала о Джеймсе Бонде.
* Этот фильм было решено снимать после того, как президент Кеннеди сказал, что роман Яна Флеминга «Из России с любовью» - это одна из десяти самых любимых его книг.
* В титрах не указан исполнитель роли Эрнста Блофельда. Напротив имени героя стоит вопросительный знак.

...из книги «3500 кинорецензий»

Сергей Кудрявцев 7.5/10
Шпионско-приключенческий фильм с элементами иронии
Возможно, кое-что во второй серии «бондианы» покажется устаревшим и наивным. Техническое оснащение суперагента 007 из «Интеллиджент Сервис» ныне вызовет лишь ироническую улыбку. И всё же в старомодном, на сегодняшний взгляд, Джеймсе Бонде 60-х годов (особенно это касается первых лент киносериала) есть главное, что отсутствует во многих последующих, более дорогостоящих, постановочных картинах. В старых фильмах замечаешь обаяние уверенного в себе, чуть с завышенным самомнением международного шпиона. Привлекают лёгкость, непринуждённость поведения героя, который вывёртывается играючи, но как бы с удивлением, изумлением по поводу собственной сноровки, смекалки и… ума. Коннеровский Джеймс Бонд действительно умён и хитёр. Он похож на ловкого игрока, передёргивающего карты, который не исключает возможности однажды попасться на обмане, но благодаря везению и самообладанию всегда выходит «сухим из воды».
В ленте «Из России с любовью» остроумна, прежде всего, сцена в Восточном экспрессе, мчащемся из Стамбула (тут иронически перефразированы многие детективные образцы — от романов Агаты Кристи до фильмов Альфреда Хичкока, который, кстати, даже подумывал об экранизации этого романа Иэна Флеминга). Замечателен эпизод предфинального поединка агента 007 с вертолётом (между прочим, на съёмках чуть не пострадал исполнитель главной роли). Именно это, как и искрящийся юмор диалогов, и, конечно, привлекательный образ пройдохи на службе у британской разведки, способствовало успеху картины, которая в мировом прокате превзошла собственный незначительный бюджет почти в 40 раз!

MediaInfo:

General
Complete name : E:\James Bond Collection\Часть 2. 007.From.Russia.With.Love.1963.mkv
Format : Matroska
File size : 9.47 GiB
Duration : 1h 55mn
Overall bit rate : 11.8 Mbps
Movie name : From Russia With Love (1963)
Encoded date : UTC 2008-11-21 12:36:15
Writing application : mkvmerge v2.1.0 ('Another Place To Fall') built on Aug 19 2007 13:40:07
Writing library : libebml v0.7.7 + libmatroska v0.8.1
Video
ID : 1
Format : AVC
Format/Info : Advanced Video Codec
Format profile : High@L4.1
Format settings, CABAC : Yes
Format settings, ReFrames : 6 frames
Muxing mode : Container profile=Unknown@4.1
Codec ID : V_MPEG4/ISO/AVC
Duration : 1h 55mn
Bit rate : 5 884 Kbps
Nominal bit rate : 6 110 Kbps
Width : 1 200 pixels
Height : 720 pixels
Display aspect ratio : 1.667
Frame rate : 23.976 fps
Resolution : 8 bits
Colorimetry : 4:2:0
Scan type : Progressive
Bits/(Pixel*Frame) : 0.284
Stream size : 4.73 GiB (50%)
Writing library : x264 core 60 r886M 1075536
Encoding settings : cabac=1 / ref=6 / deblock=1:-3:-3 / analyse=0x3:0x133 / me=umh / subme=7 / brdo=1 / mixed_ref=1 / me_range=32 / chroma_me=1 / trellis=0 / 8x8dct=1 / cqm=2 / deadzone=8,8 / chroma_qp_offset=0 / threads=6 / nr=0 / decimate=1 / mbaff=0 / fgo=0 / bframes=16 / b_pyramid=0 / b_adapt=1 / b_bias=0 / direct=1 / wpredb=1 / bime=1 / keyint=250 / keyint_min=25 / scenecut=40(pre) / rc=2pass / bitrate=6110 / ratetol=1.0 / rceq='blurCplx^(1-qComp)' / qcomp=1.00 / qpmin=10 / qpmax=51 / qpstep=4 / cplxblur=20.0 / qblur=0.5 / ip_ratio=1.40 / pb_ratio=1.30 / aq=2:1.00
Language : English
Audio #1
ID : 2
Format : AC-3
Format/Info : Audio Coding 3
Codec ID : A_AC3
Duration : 1h 55mn
Bit rate mode : Constant
Bit rate : 640 Kbps
Channel(s) : 6 channels
Channel positions : Front: L C R, Surround: L R, LFE
Sampling rate : 48.0 KHz
Stream size : 527 MiB (5%)
Title : AC3 5.1 640k Mnogogoloska (Kinomania)
Language : Russian
Audio #2
ID : 3
Format : AC-3
Format/Info : Audio Coding 3
Codec ID : A_AC3
Duration : 1h 55mn
Bit rate mode : Constant
Bit rate : 256 Kbps
Channel(s) : 2 channels
Channel positions : L R
Sampling rate : 48.0 KHz
Stream size : 211 MiB (2%)
Title : AC3 2.0 256k Mnogogoloska (Inter)
Language : Ukrainian
Audio #3
ID : 4
Format : DTS
Format/Info : Digital Theater Systems
Codec ID : A_DTS
Duration : 1h 55mn
Bit rate mode : Constant
Bit rate : 1 510 Kbps
Channel(s) : 6 channels
Channel positions : Front: L C R, Surround: L R, LFE
Sampling rate : 48.0 KHz
Resolution : 24 bits
Stream size : 1.21 GiB (13%)
Title : DTS 5.1 1536k Mnogogoloska (Karusel)
Language : Russian
Audio #4
ID : 5
Format : DTS
Format/Info : Digital Theater Systems
Codec ID : A_DTS
Duration : 1h 55mn
Bit rate mode : Constant
Bit rate : 1 510 Kbps
Channel(s) : 6 channels
Channel positions : Front: L C R, Surround: L R, LFE
Sampling rate : 48.0 KHz
Resolution : 24 bits
Stream size : 1.21 GiB (13%)
Title : DTS 5.1 1536k Odnogoloska (Givov)
Language : Russian
Audio #5
ID : 6
Format : DTS
Format/Info : Digital Theater Systems
Codec ID : A_DTS
Duration : 1h 55mn
Bit rate mode : Constant
Bit rate : 1 510 Kbps
Channel(s) : 6 channels
Channel positions : Front: L C R, Surround: L R, LFE
Sampling rate : 48.0 KHz
Resolution : 24 bits
Stream size : 1.21 GiB (13%)
Title : DTS 5.1 1536k
Language : English
Text #1
ID : 8
Format : UTF-8
Codec ID : S_TEXT/UTF8
Codec ID/Info : UTF-8 Plain Text
Language : Russian
Text #2
ID : 9
Format : UTF-8
Codec ID : S_TEXT/UTF8
Codec ID/Info : UTF-8 Plain Text
Language : English
Text #3
ID : 10
Format : UTF-8
Codec ID : S_TEXT/UTF8
Codec ID/Info : UTF-8 Plain Text
Language : Swedish
Голдфингер / Goldfinger (1964) BDRip- Русское название: Голдфингер
Оригинальное название: Goldfinger
Год выпуска: 1964
Жанр: Приключения, Боевик
Описание фильма:
На этот раз Джеймс Бонд борется со злом в лице международного преступника Голдфингера. Негодяй планирует уничтожить золотой запас США, и таким образом ввергнуть в пучину хаоса все капиталистическое общество.
Помешать этим дерзким планам может только один человек. При помощи нескольких прекрасных женщин и множества хитроумных приспособлений агент 007 обезвреживает злодея и ликвидирует угрозу банкротства целого государства.
Режиссер: Гай Хэмилтон
Актеры: Шон Коннери, Хонор Блэкмен, Герт Фроб, Ширли Итон, Таня Мале, Харольд Саката, Бернард Ли, Мартин Бенсон, Сек Линдер, Остин Уиллис, Лоис Максуэлл, Билл Наги, Майкл Меллингер, Peter Cranwell, Nadja Regin, Ричард Вернон, Берт Куок, Десмонд Левелин, Мэй Линг, Варлей Томас, Маргарет Нолан
Продолжительность: 01:50:01
Перевод: Дубляж; Профессиональный (многоголосый, закадровый) + Профессиональный (одноголосый, авторский)
Субтитры: [ASS] Русский(c BD), Русский(c DVD), English, Romanian, Finnish, French, Spanish, Portuguese, Polish, Hungarian

Видеокодек: MPEG-4 AVC/H.264
Битрейт видео: ~4 709 Kbps
Размер кадра: 1200x720p
Качество видео: BDRip
Аудиокодек: DTS
Аудио 1: Русский DTS, 48 kHz, 3/2 (L,C,R,l,r) + LFE ch, 768 kbps |Дубляж|
Аудио 2: Русский DD 5.1, 48 KHz, 3/2 (L,C,R,l,r) + LFE ch, 448 kbps |Многоголосый|
Аудио 3: Русский DTS, 48 kHz, 3/2 (L,C,R,l,r) + LFE ch, 768 kbps |Ю.Живов|
Аудио 4: English DTS, 48 kHz, 3/2 (L,C,R,l,r) + LFE ch, 1536 kbps |Оригинал|
Аудио 5: English vorbis 2.0 (commentary 1)
Аудио 6: English vorbis 2.0 (commentary 2)Скриншоты:

Знаете ли вы, что...

* Это единственный фильм бондианы с Коннери, где нет организации СПЕКТР.
* Кадры с кружащим вертолетом, появляющиеся на начальных титрах, взяты из фильма «Из России с любовью».
* Золото в Форте Нокс в фильме сложено в слишком высокие штабели - в реальности нижние ряды были бы раздавлены верхними.
* Во время съемок сцены драки Бонда с Одджобом в Форте Нокс, Шон Коннери повредил себе спину, из-за чего производство картины было на какое-то время задержано. По слухам эта травма позволила Коннери выторговать у продюсеров больше денег за следующую серию.
* Надя Реджин, играющая танцовщицу в ночном клубе, до этого появлялась в другой ленте о Джеймсе Бонде - «Из России с любовью» (1963).
* В одном эпизоде будущий известный режиссер Гарри Маршалл («Красотка») сыграл одного из американских гангстеров.
* Актриса Онор Блэкман специально ушла из телесериала «Мстители», в котором играла Кэти Гэйл, чтобы сняться в «Голдфингере». В одной из серий «Мстителей» 1965 года ее создатели шутливо намекнули на это обстоятельство: Джон Стид получает открытку от Кэти Гэйл, посланную из Форта Нокс.
* Актер Герт Фробе плохо говорил по-английски, поэтому его озвучил Майкл Коллинз.
* На табличке в Форте Нокс написано «Генерал Расисон». Техническим консультантом фильма был Чарльз Расисон.
* Идея с «золотой девушкой» была основана на реальных событиях. Одна шведская манекенщица покрасила себя золотой краской и в итоге умерла от асфиксии.
* В оригинальном сценарии первый диалог Бонда и Пусси Гэлор звучал так: «Привет. Я Пусси Гэлор.»- «Это и так видно. А как тебя зовут?» (Пусси Гэлор с английского можно перевести как Киса-Для-Всех).
* Снимая сцены в автомобилях, Шон Коннери частенько сбрасывал брюки, оставляя лишь верхнюю часть костюма: в замкнутом пространстве всегда становилось жарко, и на лице, несмотря на все усилия гримеров, выступал пот.
* В первоначальной версии фильма таймер останавливался на цифре 003. Тому есть подтверждение - Лейтер позже замечает - «Еще три раза тикнуло бы - и Голдфингер сорвал бы джек-пот». Позднее сцене решили придать форсу - секундомер останавливается на цифре 007, но фразу Лейтера из фильма выкинуть забыли.
* Все сцены с Джеймсом Бондом в Америке были сняты в Лондоне - в павильонах Pinewood Studios.
* Первый фильм о Бонде, где появляется легендарный Aston Martin DB5, который появиться ещё как минимум в 4-х фильмах Бондианы. В частности в Casino Royale Бонд назовёт машину как «Aston Martin 1964-го года» по году выхода Goldfinger, хотя модель выпускается с 1963-го.

Награды и номинации:

Оскар, 1965 год
Победитель (1):
* Лучшие звуковые эффекты
Британская академия, 1965 год
Номинации (1):
* Лучшая работа художника (цветные фильмы)

...из книги «3500 кинорецензий»

Сергей Кудрявцев 8/10
Шпионско-приключенческий фильм с элементами иронии
Третий по счёту фильм из киносериала о Джеймсе Бонде, агенте 007 британской разведки, и один из лучших (а также кассовых — бюджет был превзойдён в мировом прокате почти в 42 раза!) в цикле, популярном в течение сорока пяти лет. В этой картине Бонд вступает в схватку с хитроумным Годфингером, который собирается устроить взрыв бомбы в Форте Нокс — сокровищнице США, где хранятся все запасы золота, чтобы внести хаос в экономику, а самому стать властелином мира. Причём в ранних лентах об агенте 007 удачно сочетается напряжённое развитие действия (финальную сцену, когда Бонд останавливает счётчик взрывного устройства на цифрах 007, можно считать классической — потом подобный трюк с минимальными модификациями применялся миллион раз в самых разных фильмах во всех частях света), остроумный диалог и лёгкая ирония авторов по отношению к изображаемому.
Трудно понять, почему такие «несерьёзные» картины воспринимали у нас в СССР чересчур всерьёз и даже враждебно, считая реакционно-буржуазными или вообще тенденциозно антисоветскими. Но ведь по стилю ленты о Джеймсе Бонде можно сравнить с комиксами, то есть, говоря по-русски, с книжкой с занимательными картинками. Отдельно надо упомянуть великолепную игру Шона Коннери, первого исполнителя роли славного британского агента — его Джеймс Бонд, безусловно, неподражаем и неповторим. А музыка Джона Бэрри (особенно обработанная им главная тема Монти Нормана, которую уже давно называют просто «бондовской») стала визитной карточкой всего киносериала или «бондианы». Любопытно, что в подобном определении новообразованного цикла невольно подчёркивается как раз мифологичность её главного героя, который в современном мире как бы занял место архетипных персонажей «Илиады» и «Одиссеи».

[Цитировать]



Показать сообщения:    

Текущее время: 10-Дек 04:13

Часовой пояс: UTC + 3


Вы не можете начинать темы
Вы не можете отвечать на сообщения
Вы не можете редактировать свои сообщения
Вы не можете удалять свои сообщения
Вы не можете голосовать в опросах
Вы не можете прикреплять файлы к сообщениям
Вы не можете скачивать файлы

!ВНИМАНИЕ!
Сайт не предоставляет электронные версии произведений, а занимается лишь коллекционированием и каталогизацией ссылок, присылаемых и публикуемых на форуме нашими читателями. Если вы являетесь правообладателем какого-либо представленного материала и не желаете, чтобы ссылка на него находилась в нашем каталоге, свяжитесь с нами, и мы незамедлительно удалим ее. Файлы для обмена на трекере предоставлены пользователями сайта, и администрация не несет ответственности за их содержание. Просьба не заливать файлы, защищенные авторскими правами, а также файлы нелегального содержания!