[ Сегодня идет свободное скачивание без начисления Download ]


Статистика раздачи
Нет
 
   
 
Top  
 
 
-Анна Каренина / Anna Karenina (2012) BDRip- Русское название: Анна Каренина
Оригинальное название: Anna Karenina
Год выпуска: 2012
Производство: Великобритания / Working Title Films
Жанр: Драма, Мелодрама
Перевод: Дублированный [Исходник звука - неизвестен]
Субтитры: Вшитые отключаемые
Язык субтитров: (*srt) Русский, Английский
Режиссер: Джо Райт
Актеры: Кира Найтли, Джуд Лоу, Аарон Тейлор-Джонсон, Алисия Викандер, Келли Макдоналд, Мэтью Макфейден, Домналл Глисон, Рут Уилсон, Алисия Викандер, Оливия Уильямс, Эмили Уотсон
Описание фильма:
Встречая приехавшую из Петербурга мать, молодой блистательный офицер граф Вронский знакомится с женой влиятельного петербургского чиновника Анной Карениной. Огонь страсти вспыхивает мгновенно, но их любовь шокирует высшее общество. В мире, где правят предрассудки и стереотипы, ей придётся сделать поистине непростой выбор между семьёй и всепоглощающей страстью…-
Дата мировой премьеры: 7 сентября 2012
Дата российской премьеры: 10 января 2013, «UPI»
Дата выхода Blu-Ray релиза: 7 марта 2013, «Двадцатый Век Фокс СНГ»-Релиз от:
Продолжительность: 02:09:39
Качество видео: BDRip (batonchik)
Контейнер: MKV
Видеокодек: MPEG-4 AVC/H.264
Битрейт видео: ~ 3699 Кбит/сек
Размер кадра: 1280x536
Аудио:
1. Dolby Digital Audio / Русский / 384 kbps 5.1 / 48 kHz (Дубляж)
2. Dolby Digital Audio / Английский / 224 kbps 5.1 / 48 kHz (Оригинал)

H.264 log

--[Information] [06.02.2013 2:01:05] Standard error stream
---[NoImage] raw [info]: 1280x536p 1:1 @ 24000/1001 fps (cfr)
---[NoImage] x264 [info]: using SAR=1/1
---[NoImage] x264 [info]: using cpu capabilities: MMX2 SSE2Fast SSSE3 FastShuffle SSE4.2 AVX
---[NoImage] x264 [info]: profile High, level 4.1
---[NoImage]
---[NoImage] x264 [info]: frame I:1375 Avg QP:14.17 size:119458
---[NoImage] x264 [info]: frame P:37915 Avg QP:16.86 size: 40331
---[NoImage] x264 [info]: frame B:147065 Avg QP:19.58 size: 12899

---[NoImage] x264 [info]: consecutive B-frames: 1.6% 2.3% 5.2% 31.9% 7.3% 23.4% 3.2% 14.1% 1.6% 4.6% 0.8% 3.4% 0.5%
---[NoImage] x264 [info]: mb I I16..4: 14.2% 66.7% 19.2%
---[NoImage] x264 [info]: mb P I16..4: 1.3% 11.4% 1.3% P16..4: 39.3% 20.7% 16.5% 1.1% 0.4% skip: 8.0%
---[NoImage] x264 [info]: mb B I16..4: 0.1% 1.2% 0.1% B16..8: 49.9% 9.7% 2.5% direct: 5.2% skip:31.4% L0:44.5% L1:46.4% BI: 9.1%
---[NoImage] x264 [info]: 8x8 transform intra:80.3% inter:59.2%
---[NoImage] x264 [info]: direct mvs spatial:97.4% temporal:2.6%
---[NoImage] x264 [info]: coded y,uvDC,uvAC intra: 90.1% 89.8% 77.2% inter: 26.5% 25.4% 8.3%
---[NoImage] x264 [info]: i16 v,h,dc,p: 47% 7% 11% 35%
---[NoImage] x264 [info]: i8 v,h,dc,ddl,ddr,vr,hd,vl,hu: 14% 8% 8% 9% 13% 13% 12% 11% 12%
---[NoImage] x264 [info]: i4 v,h,dc,ddl,ddr,vr,hd,vl,hu: 13% 8% 4% 9% 15% 14% 13% 12% 13%
---[NoImage] x264 [info]: i8c dc,h,v,p: 45% 18% 17% 20%
---[NoImage] x264 [info]: Weighted P-Frames: Y:3.3% UV:1.8%
---[NoImage] x264 [info]: ref P L0: 44.0% 9.6% 19.3% 7.5% 6.2% 4.4% 4.1% 2.3% 2.4% 0.2% 0.0%
---[NoImage] x264 [info]: ref B L0: 71.1% 12.5% 7.0% 3.4% 2.5% 2.0% 1.1% 0.4%
---[NoImage] x264 [info]: ref B L1: 91.1% 8.9%
---[NoImage] x264 [info]: kb/s:3695.52
---[NoImage] encoded 186355 frames, 15.37 fps, 3695.52 kb/s
--[Information] Final statistics
---[Information] [06.02.2013 2:01:06] Video Bitrate Desired: 3699 kbit/s
---[Information] [06.02.2013 2:01:06] Video Bitrate Obtained (approximate): 3697 kbit/s

MediaInfo 0.7.61

Общее
Уникальный идентификатор : 175726996337721062409268350700258983629 (0x8433C9D671A3C2608D74E19976ADFECD)
Полное имя : R:\0002\Anna Karenina.2012.BDRip.720p.NNM-CLUB.mkv
Формат : Matroska
Версия формата : Version 4 / Version 2
Размер файла : 3,90 Гбайт
Продолжительность : 2 ч. 9 м.
Общий поток : 4302 Кбит/сек
Название фильма : Anna Karenina.2012.BDRip.720p.NNM-CLUB
Дата кодирования : UTC 2013-02-06 07:28:32
Программа кодирования : mkvmerge v6.0.0 ('Coming Up For Air') built on Jan 20 2013 09:52:00
Библиотека кодирования : libebml v1.3.0 + libmatroska v1.4.0
Видео
Идентификатор : 1
Формат : AVC
Формат/Информация : Advanced Video Codec
Профиль формата : High@L4.1
Параметр CABAC формата : Да
Параметр ReFrames формата : 9 кадров
Идентификатор кодека : V_MPEG4/ISO/AVC
Продолжительность : 2 ч. 9 м.
Битрейт : 3699 Кбит/сек
Ширина : 1280 пикселей
Высота : 536 пикселей
Соотношение сторон : 2,40:1
Режим частоты кадров : Постоянный
Частота кадров : 23,976 кадра/сек
Цветовое пространство : YUV
Субдискретизация насыщенности : 4:2:0
Битовая глубина : 8 бит
Тип развёртки : Прогрессивная
Бит/(Пиксели*Кадры) : 0.225
Размер потока : 3,27 Гбайт (84%)
Заголовок : Anna Karenina.2012.BDRip.720p.NNM-CLUB
Библиотека кодирования : x264 core 129 r2230 1cffe9f
Настройки программы : cabac=1 / ref=9 / deblock=1:-3:-3 / analyse=0x3:0x133 / me=umh / subme=9 / psy=1 / psy_rd=1.00:0.15 / mixed_ref=1 / me_range=24 / chroma_me=1 / trellis=2 / 8x8dct=1 / cqm=0 / deadzone=21,11 / fast_pskip=0 / chroma_qp_offset=-3 / threads=12 / lookahead_threads=2 / sliced_threads=0 / nr=0 / decimate=1 / interlaced=0 / bluray_compat=0 / constrained_intra=0 / bframes=12 / b_pyramid=2 / b_adapt=2 / b_bias=0 / direct=3 / weightb=0 / open_gop=0 / weightp=2 / keyint=240 / keyint_min=22 / scenecut=40 / intra_refresh=0 / rc_lookahead=50 / rc=2pass / mbtree=1 / bitrate=3699 / ratetol=1.0 / qcomp=0.60 / qpmin=0 / qpmax=69 / qpstep=4 / cplxblur=20.0 / qblur=0.5 / ip_ratio=1.40 / aq=1:0.90
Язык : English
Default : Да
Forced : Нет
Аудио #1
Идентификатор : 2
Формат : AC-3
Формат/Информация : Audio Coding 3
Расширение режима : CM (complete main)
Параметр Endianness формата : Big
Идентификатор кодека : A_AC3
Продолжительность : 2 ч. 9 м.
Вид битрейта : Постоянный
Битрейт : 384 Кбит/сек
Каналы : 6 каналов
Расположение каналов : Front: L C R, Side: L R, LFE
Частота : 48,0 КГц
Битовая глубина : 16 бит
Метод сжатия : С потерями
Размер потока : 356 Мбайт (9%)
Заголовок : Дубляж
Язык : Russian
Default : Да
Forced : Нет
Аудио #2
Идентификатор : 3
Формат : AC-3
Формат/Информация : Audio Coding 3
Расширение режима : CM (complete main)
Параметр Endianness формата : Big
Идентификатор кодека : A_AC3
Продолжительность : 2 ч. 9 м.
Вид битрейта : Постоянный
Битрейт : 224 Кбит/сек
Каналы : 6 каналов
Расположение каналов : Front: L C R, Side: L R, LFE
Частота : 48,0 КГц
Битовая глубина : 16 бит
Метод сжатия : С потерями
Размер потока : 208 Мбайт (5%)
Заголовок : Оригинал
Язык : English
Default : Нет
Forced : Нет
Текст #1
Идентификатор : 4
Формат : UTF-8
Идентификатор кодека : S_TEXT/UTF8
Идентификатор кодека/Информация : UTF-8 Plain Text
Язык : Russian
Default : Нет
Forced : Нет
Текст #2
Идентификатор : 5
Формат : UTF-8
Идентификатор кодека : S_TEXT/UTF8
Идентификатор кодека/Информация : UTF-8 Plain Text
Язык : English
Default : Нет
Forced : Нет
Меню
00:00:00.000 : en:Chapter 1
00:05:36.294 : en:Chapter 2
00:11:42.076 : en:Chapter 3
00:19:59.156 : en:Chapter 4
00:25:26.900 : en:Chapter 5
00:32:40.750 : en:Chapter 6
00:39:52.056 : en:Chapter 7
00:46:59.108 : en:Chapter 8
00:54:00.362 : en:Chapter 9
01:00:36.258 : en:Chapter 10
01:07:13.529 : en:Chapter 11
01:14:52.071 : en:Chapter 12
01:22:30.070 : en:Chapter 13
01:27:00.549 : en:Chapter 14
01:31:49.379 : en:Chapter 15
01:36:12.976 : en:Chapter 16
01:42:42.907 : en:Chapter 17
01:47:57.971 : en:Chapter 18
01:55:04.523 : en:Chapter 19
02:01:45.924 : en:Chapter 20

Знаете ли Вы, что...

Роберту Паттинсону была предложена роль Вронского.
Джеймс МакЭвой рассматривался на роль Левина.
Сирша Ронан отказалась от роли Китти из-за продолжительного съемочного графика этой картины (с осени 2011 года до конца весны 2012-го), так как в этот период она должна была сняться в двух других проектах («Византия» и «Гостья»), в каждом из которых она сыграет главную роль. В итоге роль Китти получила Алисия Викандер.
Кейт Бланшетт, Бенедикт Камбербэтч и Андреа Райзборо также рассматривались на главные роли в фильме.
Сирша Ронан, Джеймс МакЭвой, Бенедикт Камбербэтч и Кейт Бланшетт ранее работали с режиссером Джо Райтом в разных картинах.
Часть съемок прошла в России, а именно в Карелии на острове Кижи.
Оператор-постановщик Филипп Русло был вынужден покинуть проект на стадии препродакшна, чтобы сделать операцию на спине. Мучительные боли от радикулита не оставили ему выбора. Ему на смену пришел Шеймас МакГарви, который часто работал вместе с режиссером Джо Райтом.
Был момент, когда Джо Райт задумался о том, чтобы актеры говорили с русским акцентом, но передумал, посчитав, что тогда ему будет тяжело оценить их актерскую игру.
Вдохновившись работой британского историка Орландо Файджеса Natasha`s Dance (2002), Джо Райт решился на экспериментальный подход, чтобы передать суть истории. Большая часть фильма была снята в закрытом театре, построенном с нуля в Шеппертоне, Великобритания. Сцены на катке, железнодорожном вокзале и конюшнях были сняты в верхней части театра. Во время съемок панорамных кадров использовали игрушечные поезда и кукольные домики. Единственным человеком из основного актерского состава, которому разрешалось покидать театр, был Домналл Глисон (Левин). Этим Райт хотел подчеркнуть тот факт, что только персонаж Левина отражает реальный мир.
Скриншоты:




Время раздачи: круглогодичноИграю на аккордеоне за "Спасибо"

[Цитировать]

Топик был перенесен из форума Новинки кинопроката в форум Драма
Henkok



Показать сообщения:    

Текущее время: 10-Дек 07:55

Часовой пояс: UTC + 3


Вы не можете начинать темы
Вы не можете отвечать на сообщения
Вы не можете редактировать свои сообщения
Вы не можете удалять свои сообщения
Вы не можете голосовать в опросах
Вы не можете прикреплять файлы к сообщениям
Вы не можете скачивать файлы

!ВНИМАНИЕ!
Сайт не предоставляет электронные версии произведений, а занимается лишь коллекционированием и каталогизацией ссылок, присылаемых и публикуемых на форуме нашими читателями. Если вы являетесь правообладателем какого-либо представленного материала и не желаете, чтобы ссылка на него находилась в нашем каталоге, свяжитесь с нами, и мы незамедлительно удалим ее. Файлы для обмена на трекере предоставлены пользователями сайта, и администрация не несет ответственности за их содержание. Просьба не заливать файлы, защищенные авторскими правами, а также файлы нелегального содержания!