[ Today is free to download without increasing Download ]

DL-List and Torrent activity
Альтамира / Altamira (2016) BDRip [H.264/1080p]- Производство: Испания, Великобритания, Франция
Жанр: Драма, История
Режиссер: Хью Хадсон
Актеры: Антонио Бандерас, Клеман Сибони, Руперт Эверетт, Хавиви, Ирена Эсколар, Николас Фэррел, Аллегра Аллен, Луис Солер, Tbata Cerezo, Голшифте Фарахани, Chantal Garsan
Фильм о жизни Марселино Санс де Саутуола, открывшего пещеру Альтамира. На сегодняшний день она внесена в список всемирного наследия ЮНЕСКО, однако при жизни Саутоле пришлось столкнуться с насмешками со стороны научного сообщества и жить с клеймом обманщика.

Дата мировой премьеры: 1 апреля 2016
Продолжительность: 01:33:39
Качество видео: BDRip
Перевод: Многоголосый закадровый, любительский (СПД)
Реклама: присутствуют аудио и видео вставки рекламы.
Видео: AVC/H.264, 1920x1040, 10.3 Mb/s
Аудио: AC3, 2 ch, 640 Kbps


Format                      : Matroska
Format version              : Version 2
File size                   : 7.17 GiB
Duration                    : 1 h 33 min
Overall bit rate mode       : Constant
Overall bit rate            : 11.0 Mb/s
Encoded date                : UTC 2016-09-12 20:17:22
Writing application         : mkvmerge v8.3.0 ('Over the Horizon') 64bit
Writing library             : libebml v1.3.1 + libmatroska v1.4.2
ID                          : 1
Format                      : AVC
Format/Info                 : Advanced Video Codec
Format profile              : [url=mailto:High@L4.1]High@L4.1[/url]
Format settings, CABAC      : Yes
Format settings, ReFrames   : 4 frames
Codec ID                    : V_MPEG4/ISO/AVC
Duration                    : 1 h 33 min
Bit rate mode               : Constant
Bit rate                    : 10.3 Mb/s
Nominal bit rate            : 11.3 Mb/s
Width                       : 1 920 pixels
Height                      : 1 040 pixels
Display aspect ratio        : 1.85:1
Frame rate mode             : Constant
Frame rate                  : 24.000 FPS
Standard                    : Component
Color space                 : YUV
Chroma subsampling          : 4:2:0
Bit depth                   : 8 bits
Scan type                   : Progressive
Bits/(Pixel*Frame)          : 0.215
Stream size                 : 6.75 GiB (94%)
Default                     : Yes
Forced                      : No
Color range                 : Limited
Color primaries             : BT.709
Transfer characteristics    : BT.709
Matrix coefficients         : BT.709
ID                          : 2
Format                      : AC-3
Format/Info                 : Audio Coding 3
Mode extension              : CM (complete main)
Format settings, Endianness : Big
Codec ID                    : A_AC3
Duration                    : 1 h 33 min
Bit rate mode               : Constant
Bit rate                    : 640 kb/s
Channel(s)                  : 2 channels
Channel positions           : Front: L R
Sampling rate               : 48.0 kHz
Frame rate                  : 31.250 FPS (1536 spf)
Compression mode            : Lossy
Stream size                 : 429 MiB (6%)
Language                    : Russian
Default                     : Yes
Forced                      : No


Display posts:    

Current time is: 28-Oct 22:50

All times are UTC + 3

You cannot post new topics in this forum
You cannot reply to topics in this forum
You cannot edit your posts in this forum
You cannot delete your posts in this forum
You cannot vote in polls in this forum
You cannot attach files in this forum
You cannot download files in this forum

The site does not give electronic versions of products, and is engaged only in a collecting and cataloguing of the references sent and published at a forum by our readers. If you are the legal owner of any submitted material and do not wish that the reference to it was in our catalogue, contact us and we shall immediately remove her. Files for an exchange on tracker are given by users of a site, and the administration does not bear the responsibility for their maintenance. The request to not fill in the files protected by copyrights, and also files of the illegal maintenance!