[ Сегодня идет свободное скачивание без начисления Download ]


Статистика раздачи
Нет
 
   
 
Top  
 
 
Альтамира / Altamira (2016) BDRip [H.264/1080p]- Производство: Испания, Великобритания, Франция
Жанр: Драма, История
Режиссер: Хью Хадсон
Актеры: Антонио Бандерас, Клеман Сибони, Руперт Эверетт, Хавиви, Ирена Эсколар, Николас Фэррел, Аллегра Аллен, Луис Солер, Tbata Cerezo, Голшифте Фарахани, Chantal Garsan
Описание:
Фильм о жизни Марселино Санс де Саутуола, открывшего пещеру Альтамира. На сегодняшний день она внесена в список всемирного наследия ЮНЕСКО, однако при жизни Саутоле пришлось столкнуться с насмешками со стороны научного сообщества и жить с клеймом обманщика.

Дата мировой премьеры: 1 апреля 2016
Продолжительность: 01:33:39
Качество видео: BDRip
Перевод: Многоголосый закадровый, любительский (СПД)
Реклама: присутствуют аудио и видео вставки рекламы.
Видео: AVC/H.264, 1920x1040, 10.3 Mb/s
Аудио: AC3, 2 ch, 640 Kbps

Mediainfo:

Altamira.2O16.P.BDRip.1O8Op.mkv
Format                      : Matroska
Format version              : Version 2
File size                   : 7.17 GiB
Duration                    : 1 h 33 min
Overall bit rate mode       : Constant
Overall bit rate            : 11.0 Mb/s
Encoded date                : UTC 2016-09-12 20:17:22
Writing application         : mkvmerge v8.3.0 ('Over the Horizon') 64bit
Writing library             : libebml v1.3.1 + libmatroska v1.4.2
Video
ID                          : 1
Format                      : AVC
Format/Info                 : Advanced Video Codec
Format profile              : [url=mailto:High@L4.1]High@L4.1[/url]
Format settings, CABAC      : Yes
Format settings, ReFrames   : 4 frames
Codec ID                    : V_MPEG4/ISO/AVC
Duration                    : 1 h 33 min
Bit rate mode               : Constant
Bit rate                    : 10.3 Mb/s
Nominal bit rate            : 11.3 Mb/s
Width                       : 1 920 pixels
Height                      : 1 040 pixels
Display aspect ratio        : 1.85:1
Frame rate mode             : Constant
Frame rate                  : 24.000 FPS
Standard                    : Component
Color space                 : YUV
Chroma subsampling          : 4:2:0
Bit depth                   : 8 bits
Scan type                   : Progressive
Bits/(Pixel*Frame)          : 0.215
Stream size                 : 6.75 GiB (94%)
Default                     : Yes
Forced                      : No
Color range                 : Limited
Color primaries             : BT.709
Transfer characteristics    : BT.709
Matrix coefficients         : BT.709
Audio
ID                          : 2
Format                      : AC-3
Format/Info                 : Audio Coding 3
Mode extension              : CM (complete main)
Format settings, Endianness : Big
Codec ID                    : A_AC3
Duration                    : 1 h 33 min
Bit rate mode               : Constant
Bit rate                    : 640 kb/s
Channel(s)                  : 2 channels
Channel positions           : Front: L R
Sampling rate               : 48.0 kHz
Frame rate                  : 31.250 FPS (1536 spf)
Compression mode            : Lossy
Stream size                 : 429 MiB (6%)
Language                    : Russian
Default                     : Yes
Forced                      : No
Скриншоты:

[Цитировать]



Показать сообщения:    

Текущее время: 08-Дек 19:13

Часовой пояс: UTC + 3


Вы не можете начинать темы
Вы не можете отвечать на сообщения
Вы не можете редактировать свои сообщения
Вы не можете удалять свои сообщения
Вы не можете голосовать в опросах
Вы не можете прикреплять файлы к сообщениям
Вы не можете скачивать файлы

!ВНИМАНИЕ!
Сайт не предоставляет электронные версии произведений, а занимается лишь коллекционированием и каталогизацией ссылок, присылаемых и публикуемых на форуме нашими читателями. Если вы являетесь правообладателем какого-либо представленного материала и не желаете, чтобы ссылка на него находилась в нашем каталоге, свяжитесь с нами, и мы незамедлительно удалим ее. Файлы для обмена на трекере предоставлены пользователями сайта, и администрация не несет ответственности за их содержание. Просьба не заливать файлы, защищенные авторскими правами, а также файлы нелегального содержания!