[ Сегодня идет свободное скачивание без начисления Download ]


Статистика раздачи
Нет
 
   
 
Top  
 
 
-Контрудар / Counterpunch (2013) [H.264/720p-LQ] WEB-DLRip
«Based on a True Story»
- Русское название: Контрудар
Оригинальное название: Counterpunch
Год выпуска: 2013
Производство: США / Cohencidence Productions, Digital Slave Productions
Жанр: боевик, драма, биография, спорт
Перевод: Одноголосый закадровый, любительский
Субтитры: Вшитые отключаемые
Язык субтитров: Английский
Навигация по главам: Есть (12)
Дата мировой премьеры: 15 января 2013
Режиссер: Кеннет Кастилло
Актеры: Альваро Орландо, Стивен Бауэр, Дэнни Трехо, Оскар Торрес, Камила Банус, Бэйли Гарсиа, Айвон Колл, Жилон Гай, Йениффер Беренс
Описание фильма:
Фильм основан на реальной истории. Молодой боксер из Майами Эмилио, мечтающий о победе на чемпионате мира по боксу, оказывается после поражения на распутье. Но он отчаянно борется и с помощью своего тренера снова попадает в число претендентов на чемпионский титул. И лицом к лицу встречается на ринге со своим конкурентом, и он будет наносить удар за ударом до тех пор, пока его противник не рухнет на пол ринга…
Релиз от: Liones (видеоряд от NGB) / специально для NNM-Club.ru

Рейтинг MPAA: R (лицам до 17 лет обязательно присутствие взрослого)
Продолжительность: 01:37:08
Качество видео: WEB-DLRip
Видеокодек: MPEG-4 AVC/H.264
Битрейт видео: ~3869 Kbps
Размер кадра: 1280x528
Аудио #1: Русский, 44.1 kHz, AC3 Dolby Digital, 3/2 (L,C,R,l,r) + LFE ch, 384 kbps | Одноголосый закадровый
Аудио #2: Английский, 48 kHz, AC3 Dolby Digital, 3/2 (L,C,R,l,r) + LFE ch, 384 kbps | Оригинальная звуковая дорожка

Трейлер

На английском:
[youtube]http://www.youtube.com/v/ePWGKjPIhoQ&fs=1[/youtube]

MediaInfo

General
Unique ID                      : 250244493301112031315034594722615229835 (0xBC4356183183E170895A7894EE017D8B)
Complete name                  : Counterpunch.2013.720p.[NNM-Club.ru].mkv
Format                         : Matroska
Format version                 : Version 4 / Version 2
File size                      : 3.21 GiB
Duration                       : 1h 37mn
Overall bit rate               : 4 731 Kbps
Movie name                     : Counterpunch.2013.720p.WEB-DLRip || Liones || NNM-Club.ru
Encoded date                   : UTC 2013-02-04 08:12:58
Writing application            : mkvmerge v6.0.0 ('Coming Up For Air') built on Jan 20 2013 09:52:00
Writing library                : libebml v1.3.0 + libmatroska v1.4.0
Video
ID                             : 1
Format                         : AVC
Format/Info                    : Advanced Video Codec
Format profile                 : [url=mailto:Main@L3.1]Main@L3.1[/url]
Format settings, CABAC         : No
Format settings, ReFrames      : 2 frames
Codec ID                       : V_MPEG4/ISO/AVC
Duration                       : 1h 37mn
Bit rate                       : 3 869 Kbps
Width                          : 1 280 pixels
Height                         : 528 pixels
Display aspect ratio           : 2.40:1
Frame rate mode                : Constant
Frame rate                     : 23.976 fps
Color space                    : YUV
Chroma subsampling             : 4:2:0
Bit depth                      : 8 bits
Scan type                      : Progressive
Bits/(Pixel*Frame)             : 0.239
Stream size                    : 2.62 GiB (82%)
Title                          : Counterpunch.2013.720p.WEB-DLRip.Liones.[NNM-Club.ru]
Language                       : English
Default                        : Yes
Forced                         : No
Color primaries                : BT.709
Transfer characteristics       : BT.709
Matrix coefficients            : BT.709
Audio #1
ID                             : 2
Format                         : AC-3
Format/Info                    : Audio Coding 3
Mode extension                 : CM (complete main)
Format settings, Endianness    : Big
Codec ID                       : A_AC3
Duration                       : 1h 37mn
Bit rate mode                  : Constant
Bit rate                       : 384 Kbps
Channel(s)                     : 6 channels
Channel positions              : Front: L C R, Side: L R, LFE
Sampling rate                  : 44.1 KHz
Bit depth                      : 16 bits
Compression mode               : Lossy
Stream size                    : 267 MiB (8%)
Title                          : Russian
Language                       : Russian
Default                        : Yes
Forced                         : No
Audio #2
ID                             : 3
Format                         : AC-3
Format/Info                    : Audio Coding 3
Mode extension                 : CM (complete main)
Format settings, Endianness    : Big
Codec ID                       : A_AC3
Duration                       : 1h 37mn
Bit rate mode                  : Constant
Bit rate                       : 384 Kbps
Channel(s)                     : 6 channels
Channel positions              : Front: L C R, Side: L R, LFE
Sampling rate                  : 48.0 KHz
Bit depth                      : 16 bits
Compression mode               : Lossy
Stream size                    : 267 MiB (8%)
Title                          : English
Language                       : English
Default                        : No
Forced                         : No
Text
ID                             : 4
Format                         : UTF-8
Codec ID                       : S_TEXT/UTF8
Codec ID/Info                  : UTF-8 Plain Text
Title                          : En.Sub
Language                       : English
Default                        : No
Forced                         : No
Menu
00:00:00.000                   : en:Chapter 1
00:09:02.000                   : en:Chapter 2
00:17:36.000                   : en:Chapter 3
00:25:58.000                   : en:Chapter 4
00:33:56.000                   : en:Chapter 5
00:42:19.000                   : en:Chapter 6
00:51:47.000                   : en:Chapter 7
00:59:25.000                   : en:Chapter 8
01:09:28.000                   : en:Chapter 9
01:18:35.000                   : en:Chapter 10
01:27:33.000                   : en:Chapter 11
01:35:51.000                   : en:Chapter 12
Скриншоты:


Время раздачи: с 10:00 до 23:59 по МСК до первых 20 скачавших, далее по возможности

[Цитировать]

Топик был перенесен из форума Новинки кинопроката в форум Боевик
Henkok



Показать сообщения:    

Текущее время: 08-Дек 10:59

Часовой пояс: UTC + 3


Вы не можете начинать темы
Вы не можете отвечать на сообщения
Вы не можете редактировать свои сообщения
Вы не можете удалять свои сообщения
Вы не можете голосовать в опросах
Вы не можете прикреплять файлы к сообщениям
Вы не можете скачивать файлы

!ВНИМАНИЕ!
Сайт не предоставляет электронные версии произведений, а занимается лишь коллекционированием и каталогизацией ссылок, присылаемых и публикуемых на форуме нашими читателями. Если вы являетесь правообладателем какого-либо представленного материала и не желаете, чтобы ссылка на него находилась в нашем каталоге, свяжитесь с нами, и мы незамедлительно удалим ее. Файлы для обмена на трекере предоставлены пользователями сайта, и администрация не несет ответственности за их содержание. Просьба не заливать файлы, защищенные авторскими правами, а также файлы нелегального содержания!