[ Сегодня идет свободное скачивание без начисления Download ]


Статистика раздачи
Нет
 
   
 
Top  
 
 
Cold Truth - Grindstone (2016) - Год: 2016
Жанр: Melodic Hard Rock
Издание: Blue Rose Records
Продолжительность: 00:56:59
Кодек: FLAC
Битрейт: Lossless
Тип рипа: tracks + .cue
Треклист:
01. Livin Hard 3:59
02. Where the Music Takes Me 5:15
03. No Sleep Til Sturgis 4:04
04. Leave Your Leather On 4:31
05. Grindstone 3:38
06. The Long White Line 5:57
07. New Horizon 5:11
08. Hands on the Wheel 3:48
09. Last Man Alive 4:39
10. Take up Serpents 4:48
11. Give It Time 4:22
12. Free Man 6:20

Cue Sheet (.cue):

REM GENRE "Hard Rock"
REM DATE 2016
PERFORMER "Cold Truth"
TITLE Grindstone
FILE "01. Livin Hard.flac" WAVE
  TRACK 1 AUDIO
    TITLE "Livin Hard"
    PERFORMER "Cold Truth"
    INDEX 01 00:00:00
FILE "02. Where the Music Takes Me.flac" WAVE
  TRACK 2 AUDIO
    TITLE "Where The Music Takes Me"
    PERFORMER "Cold Truth"
    INDEX 01 00:00:00
FILE "03. No Sleep Til Sturgis.flac" WAVE
  TRACK 3 AUDIO
    TITLE "No Sleep Til Sturgis"
    PERFORMER "Cold Truth"
    INDEX 01 00:00:00
FILE "04. Leave Your Leather On.flac" WAVE
  TRACK 4 AUDIO
    TITLE "Leave Your Leather On"
    PERFORMER "Cold Truth"
    INDEX 01 00:00:00
FILE "05. Grindstone.flac" WAVE
  TRACK 5 AUDIO
    TITLE Grindstone
    PERFORMER "Cold Truth"
    INDEX 01 00:00:00
FILE "06. The Long White Line.flac" WAVE
  TRACK 6 AUDIO
    TITLE "The Long White Line"
    PERFORMER "Cold Truth"
    INDEX 01 00:00:00
FILE "07. New Horizon.flac" WAVE
  TRACK 7 AUDIO
    TITLE "New Horizon"
    PERFORMER "Cold Truth"
    INDEX 01 00:00:00
FILE "08. Hands on the Wheel.flac" WAVE
  TRACK 8 AUDIO
    TITLE "Hands On The Wheel"
    PERFORMER "Cold Truth"
    INDEX 01 00:00:00
FILE "09. Last Man Alive.flac" WAVE
  TRACK 9 AUDIO
    TITLE "Last Man Alive"
    PERFORMER "Cold Truth"
    INDEX 01 00:00:00
FILE "10. Take up Serpents.flac" WAVE
  TRACK 10 AUDIO
    TITLE "Take Up Serpents"
    PERFORMER "Cold Truth"
    INDEX 01 00:00:00
FILE "11. Give It Time.flac" WAVE
  TRACK 11 AUDIO
    TITLE "Give It Time"
    PERFORMER "Cold Truth"
    INDEX 01 00:00:00
FILE "12. Free Man.flac" WAVE
  TRACK 12 AUDIO
    TITLE "Free Man"
    PERFORMER "Cold Truth"
    INDEX 01 00:00:00

Отчёт auCDtect Task manager:

-----------------------
DON'T MODIFY THIS FILE
-----------------------
PERFORMER: auCDtect Task Manager, ver. 1.6.0 RC1 build 1.6.0.1
Copyright (c) 2008-2010 y-soft. All rights reserved
http://y-soft.org
ANALYZER: auCDtect: CD records authenticity detector, version 0.8.2
Copyright (c) 2004 Oleg Berngardt. All rights reserved.
Copyright (c) 2004 Alexander Djourik. All rights reserved.
FILE: 01. Livin Hard.flac
  Size: 28495214 Hash: 4B7A0A28134031D571FBACBAD75A44DE Accuracy: -m0
  Conclusion: CDDA 100%
  Signature: 16CD5AC1D60CD82588BCADDE571C9B48989C3631
FILE: 02. Where the Music Takes Me.flac
  Size: 38580637 Hash: D686EE4E8D43B7226C023D8567538940 Accuracy: -m0
  Conclusion: CDDA 100%
  Signature: 346FF55F900811DE9403BC31F1ECFCFA39CD67E8
FILE: 03. No Sleep Til Sturgis.flac
  Size: 30606585 Hash: D6E30696C96C96F85AE3CDF14774F13C Accuracy: -m0
  Conclusion: CDDA 100%
  Signature: CAD74AC5105FB6D27CB3391BD0588BC7440C357B
FILE: 04. Leave Your Leather On.flac
  Size: 32322175 Hash: 7A6539063138AE19D77FD04BCAE88EEA Accuracy: -m0
  Conclusion: CDDA 100%
  Signature: 6231975D8F7B390D466A1D5567934DE8CACD61E2
FILE: 05. Grindstone.flac
  Size: 24865899 Hash: AE5A7FEBE46F4BBF26EF742465CD26B0 Accuracy: -m0
  Conclusion: CDDA 100%
  Signature: C750D90157614E091D878C3247C4657512EA9453
FILE: 06. The Long White Line.flac
  Size: 39971941 Hash: 3E71929C4DCADC6CC6D2D4844860343B Accuracy: -m0
  Conclusion: CDDA 100%
  Signature: EF31F63DE09D9F041EA9152E7BB806FE67734128
FILE: 07. New Horizon.flac
  Size: 36056615 Hash: 4090D4E4A1A5DD8637046F82DCABA0B9 Accuracy: -m0
  Conclusion: CDDA 100%
  Signature: B4481715A62FDD40E1802C751D2625A0E9EBA1A7
FILE: 08. Hands on the Wheel.flac
  Size: 27009446 Hash: A38A7249C7AED2108810DCE85D7BCCCC Accuracy: -m0
  Conclusion: CDDA 100%
  Signature: 69CE5E0EDA46B7046FD48166901ECC3DFAD82BCA
FILE: 09. Last Man Alive.flac
  Size: 29677564 Hash: 7FA204D77740E4DCE89B9B43AD7CBE7E Accuracy: -m0
  Conclusion: CDDA 100%
  Signature: 52A6F2B2DC726C66B7406EE8F282770EDE71C250
FILE: 10. Take up Serpents.flac
  Size: 34801978 Hash: AC705649F541E83ABFD71282F2EC5CE5 Accuracy: -m0
  Conclusion: CDDA 100%
  Signature: 86A6E4C35B6F4DF0E46C00E57369B68688C77E66
FILE: 11. Give It Time.flac
  Size: 29586186 Hash: DCF049EAA66A707260AB05D165001FEB Accuracy: -m0
  Conclusion: CDDA 100%
  Signature: 78EFE298DFAECA4ED04FE362F9020FE6F42786B2
FILE: 12. Free Man.flac
  Size: 42207037 Hash: 418F3F6B8BD0ECEF7C22C8EE3BEC9C79 Accuracy: -m0
  Conclusion: CDDA 99%
  Signature: 631F4BC6D6979C48E62965FE7A615350C4915367

[Цитировать]



Показать сообщения:    

Текущее время: 08-Дек 09:04

Часовой пояс: UTC + 3


Вы не можете начинать темы
Вы не можете отвечать на сообщения
Вы не можете редактировать свои сообщения
Вы не можете удалять свои сообщения
Вы не можете голосовать в опросах
Вы не можете прикреплять файлы к сообщениям
Вы не можете скачивать файлы

!ВНИМАНИЕ!
Сайт не предоставляет электронные версии произведений, а занимается лишь коллекционированием и каталогизацией ссылок, присылаемых и публикуемых на форуме нашими читателями. Если вы являетесь правообладателем какого-либо представленного материала и не желаете, чтобы ссылка на него находилась в нашем каталоге, свяжитесь с нами, и мы незамедлительно удалим ее. Файлы для обмена на трекере предоставлены пользователями сайта, и администрация не несет ответственности за их содержание. Просьба не заливать файлы, защищенные авторскими правами, а также файлы нелегального содержания!