[ Сегодня идет свободное скачивание без начисления Download ]


Статистика раздачи
Скачал: [ 2 ]
 
   
 
Top  
 
 
Отель последней надежды [01-04 из 04] Информация о фильме
Оригинальное название: Отель последней надежды
Год выпуска: 2016
Жанр: Детектив, мелодрама
Режиссер: Петр Амелин
В ролях: Эмилия Спивак, Павел Делонг, Анна Старшенбаум, Сергей Марин, Оксана Базилевич, Сергей Барковский, Эра Зиганшина, Роман Нечаев, Сергей Колос, Павел Григорьев, Алексей Фокин, Сергей Потехин, Дмитрий Кочкин, Ирина Полянская, Вадим Волков, Владимир Халтурин, Манана Гогитидзе, Антон Мошечков, Алан Томаев, Сергей Барабаш, Татьяна Андриянова, Анна Енжаева, Елена Карпова, Алексей Одинг
О фильме:
Жизнь рухнула в одно мгновенье: от Нади Звонарёвой ушёл муж. А тут еще отель, в котором она работает начальником службы портье, готовится к визиту короля. Введены строжайшие меры безопасности, а вокруг Нади, как специально, начинают твориться странные вещи: на неё нападают грабители, кто-то сжигает семейные фотографии, подбрасывает в квартиру чучело мужа… И всё это на глазах у начальника службы охраны короля - Дэна Уолша, которому теперь нужно во всём разобраться.

Страна: Россия
Студия: ООО "Свэлл Фильм"
Продолжительность: 4 x ~ 00:45:00
Перевод: Не требуется
Файл
Формат: AVI
Качество: WEB-DLRip
Видео: XviD build 73, 656x368 (16:9), 25.000 fps, ~ 1000 Kbps (~ 0.170 bit/pixel)
Звук: 48.0 kHz, MP3, 2/0 ch, 128 kbps
Субтитры: нет

МедиаИнфо

General
Complete name : Otelj.Poslednej.Nadezhdy.2016.XviD.WEB-DLRip.by.GeneralFilmSerija.01.avi
Format : AVI
Format/Info : Audio Video Interleave
File size : 372 MiB
Duration : 44mn 5s
Overall bit rate : 1 180 Kbps
Writing application : VirtualDubMod 1.5.10.3 | www.virtualdub-fr.org || (build 2550/release)
Writing library : VirtualDubMod build 2550/release
Video
ID : 0
Format : MPEG-4 Visual
Format profile : Advanced Simple@L5
Format settings, BVOP : 1
Format settings, QPel : No
Format settings, GMC : No warppoints
Format settings, Matrix : Custom
Codec ID : XVID
Codec ID/Hint : XviD
Duration : 44mn 5s
Bit rate : 1 042 Kbps
Width : 656 pixels
Height : 368 pixels
Display aspect ratio : 16:9
Frame rate : 25.000 fps
Color space : YUV
Chroma subsampling : 4:2:0
Bit depth : 8 bits
Scan type : Progressive
Compression mode : Lossy
Bits/(Pixel*Frame) : 0.173
Stream size : 329 MiB (88%)
Writing library : XviD 73
Audio
ID : 1
Format : MPEG Audio
Format version : Version 1
Format profile : Layer 3
Codec ID : 55
Codec ID/Hint : MP3
Duration : 44mn 5s
Bit rate mode : Constant
Bit rate : 128 Kbps
Channel(s) : 2 channels
Sampling rate : 44.1 KHz
Compression mode : Lossy
Stream size : 40.4 MiB (11%)
Alignment : Split accross interleaves
Interleave, duration : 40 ms (1.00 video frame)
Interleave, preload duratio : 500 ms
Writing library : LAME3.99r
Encoding settings : -m s -V 4 -q 0 -lowpass 17 -b 128

Скриншоты





[Цитировать]



Показать сообщения:    

Текущее время: 08-Дек 19:03

Часовой пояс: UTC + 3


Вы не можете начинать темы
Вы не можете отвечать на сообщения
Вы не можете редактировать свои сообщения
Вы не можете удалять свои сообщения
Вы не можете голосовать в опросах
Вы не можете прикреплять файлы к сообщениям
Вы не можете скачивать файлы

!ВНИМАНИЕ!
Сайт не предоставляет электронные версии произведений, а занимается лишь коллекционированием и каталогизацией ссылок, присылаемых и публикуемых на форуме нашими читателями. Если вы являетесь правообладателем какого-либо представленного материала и не желаете, чтобы ссылка на него находилась в нашем каталоге, свяжитесь с нами, и мы незамедлительно удалим ее. Файлы для обмена на трекере предоставлены пользователями сайта, и администрация не несет ответственности за их содержание. Просьба не заливать файлы, защищенные авторскими правами, а также файлы нелегального содержания!